<?xml version="1.0" standalone="no"?>
<!DOCTYPE svg PUBLIC "-//W3C//DTD SVG 1.1//EN" "http://www.w3.org/Graphics/SVG/1.1/DTD/svg11.dtd" >
<!--
2013-9-30: Created.
-->
<svg>
<metadata>
Created by iconfont
</metadata>
<defs>

<font id="iconfont" horiz-adv-x="1024" >
  <font-face
    font-family="iconfont"
    font-weight="500"
    font-stretch="normal"
    units-per-em="1024"
    ascent="896"
    descent="-128"
  />
    <missing-glyph />
    
    <glyph glyph-name="1" unicode="&#58939;" d="M609.373473 683.815357H191.617679L331.552218 816.143698a44.857065 44.857065 0 0 1 0 66.066655 51.341836 51.341836 0 0 1-69.918512 0L42.321665 674.941459a45.198369 45.198369 0 0 1-14.139726-36.470744 44.857065 44.857065 0 0 1 14.139726-36.470744l219.11701-207.220136c9.65402-9.166444 22.331017-13.749666 34.959256-13.749665 12.676997 0 25.256478 4.583222 34.910498 13.798423a44.857065 44.857065 0 0 1 0 66.017897l-137.009078 129.500396h408.784382c172.699699 0 318.241371-128.476484 322.141986-291.668436 3.949372-167.726416-139.154416-305.418102-315.705973-305.418102h-63.287467l-2.291611 0.146273h-424.191808l-2.194096-0.146273a48.513891 48.513891 0 0 1-46.514826-39.103659v-15.309911c3.851857-21.453379 22.916109-37.933474 46.319796-39.054901h484.748845c227.3083 0 417.804552 170.066785 421.948955 384.746846 4.290676 219.458314-183.426389 399.325392-414.586545 399.325392h-0.097516z"  horiz-adv-x="1024" />

    
    <glyph glyph-name="xiazai" unicode="&#58937;" d="M960-89.6H64c-19.2 0-32 12.8-32 32s12.8 32 32 32h896c19.2 0 32-12.8 32-32s-12.8-32-32-32zM518.4 76.8c-25.6 0-51.2 6.4-70.4 25.6l-320 320c-12.8 12.8-12.8 32 0 44.8s32 12.8 44.8 0l320-320c12.8-12.8 32-12.8 44.8 0l320 320c12.8 12.8 32 12.8 44.8 0s12.8-32 0-44.8l-320-320c-19.2-12.8-44.8-25.6-64-25.6zM518.4 83.2c-19.2 0-32 12.8-32 32V825.6c0 19.2 12.8 32 32 32s32-12.8 32-32v-710.4c0-19.2-12.8-32-32-32z"  horiz-adv-x="1024" />

    
    <glyph glyph-name="11-04" unicode="&#59268;" d="M748.28 113.5h-13.72v75h13.72c78.42 0 142.22 63.8 142.22 142.22s-63.8 142.22-142.22 142.22h-56.41l-0.36 37.14c-0.94 97.81-81.29 177.38-179.11 177.38s-178.17-79.57-179.11-177.38l-0.36-37.14h-54.32c-78.42 0-142.22-63.8-142.22-142.22s63.8-142.22 142.22-142.22h21.06v-75h-21.06c-57.82 0-112.32 22.65-153.44 63.78-41.13 41.12-63.78 95.62-63.78 153.44 0 57.82 22.65 112.32 63.78 153.44 36.98 36.98 84.76 59.02 136.06 63.09 8.18 53.5 33.18 102.81 72.29 141.58 47.9 47.48 111.43 73.63 178.88 73.63s130.98-26.15 178.88-73.63c39.08-38.73 64.06-87.99 72.27-141.42 52.1-3.62 100.69-25.76 138.18-63.25 41.13-41.13 63.78-95.62 63.78-153.44 0-57.82-22.65-112.32-63.78-153.44-41.14-41.13-95.63-63.78-153.45-63.78zM474.6 427.79h75V108.2h-75zM511.92 54.91L344.07 193.32l47.72 57.86 120.29-99.2 121.69 99.67 47.52-58.03z"  horiz-adv-x="1024" />

    
    <glyph glyph-name="youxiang" unicode="&#59241;" d="M834.446 682.553H194.105c-50.176 0-91.022-40.846-91.022-91.022v-423.026c0-50.176 40.846-91.022 91.022-91.022h640.341c50.176 0 91.022 40.846 91.022 91.022V591.531c0 50.176-40.846 91.022-91.022 91.022z m36.409-514.048c0-20.025-16.384-36.409-36.409-36.409H194.105c-20.025 0-36.409 16.384-36.409 36.409V591.531c0 20.025 16.384 36.409 36.409 36.409h640.341c20.025 0 36.409-16.384 36.409-36.409v-423.026zM786.773 537.941L514.275 366.023 241.777 537.941c-12.743 8.078-29.582 4.21-37.661-8.533-8.078-12.743-4.21-29.582 8.533-37.661l286.72-180.907c4.551-2.845 9.557-4.21 14.563-4.21h0.91c5.006 0 10.013 1.365 14.563 4.21l286.72 180.907c12.743 8.078 16.611 24.917 8.533 37.661-8.306 12.857-25.145 16.611-37.888 8.533z"  horiz-adv-x="1024" />

    
    <glyph glyph-name="bangdingshouji" unicode="&#58957;" d="M508.5 80.7c-30.2 0-54.6 24.5-54.6 54.6 0 30.2 24.5 54.6 54.6 54.6 30.2 0 54.6-24.5 54.6-54.6 0-30.2-24.4-54.6-54.6-54.6zM317.2 764.9h382.5c60.4 0 109.3-48.9 109.3-109.3v-546.4c0-60.4-48.9-109.3-109.3-109.3H317.2c-60.4 0-109.3 48.9-109.3 109.3V655.6c0.1 60.4 49 109.3 109.3 109.3zM754.4 218H262.6v-108.8c0-30.2 24.5-54.6 54.6-54.6h382.5c30.2 0 54.6 24.5 54.6 54.6V218z m0 54.7v383c0 30.2-24.5 54.6-54.6 54.6H317.2c-30.2 0-54.6-24.5-54.6-54.6v-383h491.8z"  horiz-adv-x="1024" />

    
    <glyph glyph-name="shouji" unicode="&#59476;" d="M736.653061-33.959184H287.346939c-45.97551 0-83.591837 37.616327-83.591837 83.591837V718.367347c0 45.97551 37.616327 83.591837 83.591837 83.591837h449.306122c45.97551 0 83.591837-37.616327 83.591837-83.591837v-668.734694c0-45.97551-37.616327-83.591837-83.591837-83.591837zM287.346939 760.163265c-22.987755 0-41.795918-18.808163-41.795919-41.795918v-668.734694c0-22.987755 18.808163-41.795918 41.795919-41.795918h449.306122c22.987755 0 41.795918 18.808163 41.795919 41.795918V718.367347c0 22.987755-18.808163 41.795918-41.795919 41.795918H287.346939zM616.489796 80.979592H407.510204c-11.493878 0-20.897959 9.404082-20.897959 20.897959s9.404082 20.897959 20.897959 20.897959h208.979592c11.493878 0 20.897959-9.404082 20.897959-20.897959s-9.404082-20.897959-20.897959-20.897959z"  horiz-adv-x="1024" />

    
    <glyph glyph-name="52-shouji" unicode="&#59505;" d="M682.7-42.7H341.3c-70.6 0-128 57.4-128 128V682.7c0 70.6 57.4 128 128 128h341.3c70.6 0 128-57.4 128-128v-597.3c0.1-70.6-57.4-128.1-127.9-128.1z m-341.4 768c-23.5 0-42.7-19.1-42.7-42.7v-597.3c0-23.5 19.1-42.7 42.7-42.7h341.3c23.5 0 42.7 19.1 42.7 42.7V682.7c0 23.5-19.1 42.7-42.7 42.7H341.3zM597.3 85.3H426.7c-23.6 0-42.7 19.1-42.7 42.7s19.1 42.7 42.7 42.7h170.7c23.6 0 42.7-19.1 42.7-42.7-0.1-23.6-19.2-42.7-42.8-42.7z"  horiz-adv-x="1024" />

    
    <glyph glyph-name="home" unicode="&#58896;" d="M889.97888 345.09312l-356.79744 356.81792c-4.23424 4.23936-9.99424 6.61504-15.9744 6.61504-5.9904 0-11.74016-2.3808-15.97952-6.61504l-356.8128-356.81792c-8.82688-8.8064-8.82688-23.12704 0-31.9488 8.82688-8.81664 20.3008-8.81664 29.12256 0l68.29056 71.12704 0-282.61888c0-12.4672 15.76448-28.24704 28.24192-28.24704l157.92128 0 180.75136 0 158.40768 0c12.46208 0 16.94208 15.77984 16.94208 28.24704l0 279.78752 71.10144-68.29056c4.42368-4.38784 11.60192-6.62016 17.38752-6.62016 5.79072 0 12.26752 2.23232 16.6912 6.62016C898.09408 321.9712 898.80576 336.29184 889.97888 345.09312zM580.7616 118.59456 445.184 118.59456l0 152.51456c0 18.688 20.61312 28.24704 39.30112 28.24704l67.78368 0c18.688 0 28.48768-9.55392 28.48768-28.24704L580.75648 118.59456zM738.9184 118.59456l-112.9728 0 0 152.51456c0 43.61216-30.07488 73.43616-73.6768 73.43616L484.48512 344.54528c-43.60192 0-84.48512-29.824-84.48512-73.43616l0-152.51456L287.0272 118.59456l0 310.6816c0 0.05632 2.80064 0.1024 2.80064 0.16384l223.14496 224.54272 225.9456-227.35872L738.9184 118.59456z"  horiz-adv-x="1024" />

    
    <glyph glyph-name="home2" unicode="&#58906;" d="M7.8 457.4c-9.8 13.4-6.8 32.2 6.6 41.9l452.1 334 0.3 0.2c32.5 22.5 75.9 22.1 108-0.8l0.6-0.4L1012 499.4c13.2-10 15.9-28.8 6-42-10-13.2-28.8-15.9-42-6L539.6 784.1c-11.5 8.1-26.8 8.2-38.4 0.3L49.7 450.8c-13.4-9.7-32.2-6.8-41.9 6.6zM874.3-81.10000000000002H593.1l-0.3 171.2c-0.1 43.5-35.5 78.8-79 78.8s-78.9-35.4-79-78.8l-0.3-171.2H151.2c-45.8 0-83.2 37.3-83.4 83.1l-1.1 346.8c-0.1 16.6 13.3 30 29.9 30.1 16.6 0.1 30-13.3 30.1-29.9l1.1-346.8c0-12.9 10.5-23.3 23.4-23.3h223.4l0.2 111.3c0.1 76.5 62.5 138.7 139 138.7s138.8-62.2 139-138.7l0.2-111.3h221.3c12.9 0 23.4 10.5 23.4 23.4L898 349c0 16.6 13.5 30 30 30 16.6 0 30-13.5 30-30l-0.3-346.7c-0.1-46-37.5-83.4-83.4-83.4z"  horiz-adv-x="1024" />

    
    <glyph glyph-name="Kafka" unicode="&#58970;" d="M806.668 286.342c-57.579 0-106.69-34.999-127.577-84.675l-238.783 116.851c7.338 20.322 11.854 42.337 11.854 65.482 0 4.516 0 9.032-0.564 13.548l244.428 119.674c25.402-33.305 65.482-54.756 110.077-54.756 76.207 0 138.302 62.095 138.302 138.302s-62.095 138.302-138.302 138.302-138.302-62.095-138.302-138.302c0-18.064 3.387-34.999 9.596-50.805l-232.573-114.593c-20.322 72.82-84.11 127.577-161.447 134.915v119.674c44.595 9.032 77.901 47.982 77.901 94.836 0 53.063-43.466 96.529-96.529 96.529s-96.529-43.466-96.529-96.529c0-46.853 33.305-85.804 77.901-94.836v-119.674c-94.836-9.596-168.785-89.191-168.785-186.284 0-97.094 73.949-177.252 168.785-186.284l-0-120.238c-44.595-8.467-77.901-47.982-77.901-94.836 0-53.063 43.466-96.529 96.529-96.529s96.529 43.466 96.529 96.529c0 46.853-33.305 85.804-77.901 94.836v120.238c59.272 5.645 110.642 39.515 140.56 88.062l245.557-120.238c-0.564-5.645-1.129-11.29-1.129-16.935 0-76.207 62.095-138.302 138.302-138.302s138.302 62.095 138.302 138.302c0 75.643-62.095 137.738-138.302 137.738z"  horiz-adv-x="1024" />

    
    <glyph glyph-name="shujujieruKafkajiqun" unicode="&#58959;" d="M697.051429 221.842286c-29.622857 0-59.245714-11.922286-83.017143-23.917715L412.013714 353.133714c5.924571 17.92 11.849143 35.84 11.849143 59.757715 0 23.917714-5.851429 41.837714-11.849143 59.757714l194.413715 149.430857c17.773714-17.92 47.469714-29.842286 77.165714-29.842286a147.456 147.456 0 0 1 148.406857 149.430857A147.456 147.456 0 0 1 683.52 891.099429 147.456 147.456 0 0 1 535.259429 741.668571c0-29.915429 11.849143-59.830857 23.698285-83.675428L382.317714 526.482286c-29.696 35.84-65.316571 59.757714-106.788571 65.755428v65.755429c53.394286 11.922286 89.014857 59.757714 89.014857 113.517714 0 65.828571-53.394286 119.588571-118.710857 119.588572S127.122286 837.266286 127.122286 771.510857c0-53.76 35.547429-101.595429 89.014857-113.517714v-65.828572C127.122286 574.317714 61.805714 502.637714 61.805714 412.964571s65.316571-161.426286 148.406857-173.348571v-65.755429c-53.394286-11.922286-89.088-59.757714-89.088-113.590857 0-65.755429 53.394286-119.515429 118.710858-119.515428s118.784 53.76 118.784 119.515428c0 53.833143-35.620571 101.668571-89.088 113.590857v65.755429c41.545143 5.997714 83.090286 29.915429 106.861714 65.755429l196.022857-149.211429c-11.849143-23.917714-23.698286-53.76-23.698286-83.675429 0-83.675429 65.316571-149.430857 148.406857-149.430857a147.456 147.456 0 0 1 148.406858 149.430857 147.456 147.456 0 0 1-148.48 149.430858zM683.666286 831.341714c47.469714 0 89.014857-41.910857 89.014857-89.673143 0-47.835429-41.545143-89.673143-89.014857-89.673142-47.542857 0-89.088 41.837714-89.088 89.673142 0 47.762286 41.545143 89.673143 89.088 89.673143z m-441.782857-300.032c62.244571 0 116.736-54.857143 116.736-117.467428 0-62.683429-54.491429-117.467429-116.662858-117.467429s-116.662857 54.857143-116.662857 117.467429c0 62.610286 54.418286 117.467429 116.662857 117.467428z m-61.293715 240.201143c0 35.84 23.771429 59.830857 59.318857 59.830857 35.620571 0 59.392-23.917714 59.392-59.830857 0-35.84-23.771429-59.757714-59.392-59.757714-35.547429 0-59.318857 23.917714-59.318857 59.757714z m118.710857-717.238857c0-35.84-23.771429-59.830857-59.392-59.830857-35.547429 0-59.318857 23.917714-59.318857 59.830857 0 35.84 23.771429 59.757714 59.318857 59.757714 35.620571 0 59.392-23.917714 59.392-59.757714z m397.897143-71.533714c-47.542857 0-89.014857 41.837714-89.014857 89.673143s41.545143 89.673143 89.014857 89.673142c47.542857 0 89.014857-41.837714 89.014857-89.673142s-41.545143-89.673143-89.014857-89.673143z"  horiz-adv-x="1024" />

    
    <glyph glyph-name="kafka" unicode="&#59122;" d="M774.129466 296.353051c-51.08182 0-94.649533-31.502808-113.170221-76.234678l-211.806112 105.197505c6.526338 18.309023 10.512695 38.0997 10.512695 58.948703 0 4.056913 0 8.149103-0.493885 12.206015l216.815517 107.737486c22.542323-29.985875 58.066765-49.282668 97.648121-49.282668 67.59169 0 122.659868 55.914838 122.659868 124.529576s-55.068178 124.529576-122.659868 124.529576-122.659868-55.914838-122.659869-124.529576c0-16.262928 2.998588-31.502808 8.501878-45.754918l-206.302822-103.15141c-18.026803 65.545595-74.611913 114.863541-143.191373 121.460433V659.711303c39.546078 8.149103 69.108623 43.17966 69.108623 85.371551 0 47.765735-38.558308 86.888483-85.618493 86.888483-47.060185 0-85.618493-39.122748-85.618493-86.888483 0-42.19189 29.562545-77.257726 69.108623-85.371551v-107.737486c-84.136838-8.642988-149.717711-80.291591-149.717712-167.709236S192.791539 224.66917 276.928377 216.555345v-108.231371c-39.546078-7.61994-69.108623-43.214938-69.108623-85.37155 0-47.765735 38.558308-86.923761 85.618493-86.923761 47.060185 0 85.618493 39.122748 85.618493 86.923761 0 42.19189-29.562545 77.257726-69.108623 85.37155V216.555345c52.563475 5.07996 98.142006 35.55972 124.670686 79.268543l217.803287-108.266648c-0.493885-5.07996-0.98777-10.15992-0.98777-15.23988 0-68.614738 55.068178-124.529576 122.659868-124.529576s122.659868 55.914838 122.659869 124.529576c0.035278 68.120853-55.0329 124.035691-122.624591 124.035691z"  horiz-adv-x="1024" />

    
    <glyph glyph-name="elasticsearch-Elasticsearch" unicode="&#59475;" d="M42.666667 390.4c0-51.2 6.4-108.8 23.424-153.6H413.013333c12.8 51.2 17.045333 95.957333 17.045334 147.2a648.405333 648.405333 0 0 1-17.045334 147.2H59.733333C49.066667 486.4 42.666667 441.6 42.666667 390.4z m698.154666 140.8H476.885333c12.757333-44.8 17.024-95.957333 17.024-147.2s-6.4-95.957333-17.024-147.2h263.914667c83.008 0 146.88 63.978667 146.88 147.2 0 83.221333-63.872 147.2-146.88 147.2h0.021333zM95.850667 601.6h300.16c-36.202667 76.8-76.629333 147.2-123.52 204.8-76.586667-51.2-142.549333-121.6-176.597334-204.8h-0.042666z m698.154666 0c76.629333 0 140.48 32 187.306667 83.2C887.68 812.8 730.176 896 553.493333 896c-87.253333 0-157.504-19.2-229.866666-57.6 59.584-64 100.053333-147.2 129.834666-230.4l340.544-6.4zM89.493333 166.4h300.117334c-29.802667-76.8-70.229333-147.2-123.456-198.4-70.229333 44.8-136.213333 115.2-176.64 198.4z m704.533334 0c76.629333 0 140.48-32 187.306666-83.2-93.653333-127.957333-257.536-211.2-427.84-211.2-87.253333 0-157.504 25.6-229.866666 57.6 59.584 63.978667 100.053333 147.2 129.834666 230.4l340.565334 6.4z"  horiz-adv-x="1024" />

    
    <glyph glyph-name="apachekafka" unicode="&#60223;" d="M693.845333 328.832c-39.893333 0-75.605333-17.664-100.096-45.482667l-62.72 44.416c6.656 18.346667 10.496 38.016 10.496 58.624 0 20.266667-3.669333 39.594667-10.112 57.685334l62.592 43.946666a132.992 132.992 0 0 1 99.882667-45.226666c73.6 0 133.504 59.861333 133.504 133.504s-59.904 133.504-133.504 133.504a133.632 133.632 0 0 1-127.957333-171.434667l-62.634667-43.946667a172.544 172.544 0 0 1-106.752 61.994667V631.893333a133.717333 133.717333 0 0 1 106.026667 130.602667C502.570667 836.138667 442.666667 896 369.066667 896S235.605333 836.138667 235.605333 762.496a133.632 133.632 0 0 1 103.637334-130.005333v-76.458667a172.586667 172.586667 0 0 1-142.549334-169.642667 172.586667 172.586667 0 0 1 143.786667-169.856v-80.725333a133.674667 133.674667 0 0 1-104.832-130.304C235.605333-68.138667 295.466667-128 369.066667-128s133.504 59.861333 133.504 133.504a133.632 133.632 0 0 1-104.832 130.304v80.725333a172.458667 172.458667 0 0 1 104.96 61.056l63.146666-44.714666a132.906667 132.906667 0 0 1-5.461333-37.546667c0-73.6 59.904-133.504 133.504-133.504s133.504 59.861333 133.504 133.504-59.946667 133.504-133.546667 133.504z m0 312.149333c35.712 0 64.725333-29.056 64.725334-64.725333s-29.013333-64.725333-64.725334-64.725333c-35.669333 0-64.725333 29.056-64.725333 64.725333s29.056 64.725333 64.725333 64.725333zM304.341333 762.496c0 35.669333 29.013333 64.725333 64.725334 64.725333s64.725333-29.056 64.725333-64.725333-29.013333-64.725333-64.725333-64.725333-64.725333 29.056-64.725334 64.725333z m129.450667-756.992c0-35.669333-29.013333-64.725333-64.725333-64.725333s-64.725333 29.056-64.725334 64.725333 29.013333 64.725333 64.725334 64.725333 64.725333-29.056 64.725333-64.725333zM369.066667 296.106667a90.368 90.368 0 0 0-90.282667 90.282666c0 49.792 40.490667 90.282667 90.282667 90.282667 49.792 0 90.282667-40.490667 90.282666-90.282667A90.368 90.368 0 0 0 369.066667 296.106667z m324.778666-165.504a64.810667 64.810667 0 0 0-64.725333 64.725333c0 35.669333 29.013333 64.725333 64.725333 64.725333s64.725333-29.056 64.725334-64.725333c0-35.669333-29.013333-64.725333-64.725334-64.725333z"  horiz-adv-x="1024" />

    
    <glyph glyph-name="elasticsearch" unicode="&#60293;" d="M480.853333 231.253333H68.693333A503.893333 503.893333 0 0 0 45.653333 384c0 53.333333 7.68 104.533333 23.04 152.746667h676.693334A152.32 152.32 0 0 0 898.133333 384a151.893333 151.893333 0 0 0-151.466666-152.746667z m-19.2-51.2H87.466667a503.466667 503.466667 0 0 1 187.306666-221.013333A503.466667 503.466667 0 0 1 554.666667-125.013333c177.066667 0 331.946667 90.453333 423.68 226.133333a259.413333 259.413333 0 0 1-185.6 79.36z m331.093334 407.466667c72.533333 0 138.666667 30.72 185.6 78.933333A510.293333 510.293333 0 0 1 87.466667 587.52h372.906666z"  horiz-adv-x="1024" />

    
    <glyph glyph-name="wentifankui" unicode="&#59601;" d="M437.248 707.584c-102.912 0-149.504-61.44-149.504-149.504H337.92c1.536 62.464 42.496 97.792 99.328 99.328 50.176-1.536 72.704-29.184 74.24-75.264 0-24.064-17.408-52.224-52.224-83.968-39.936-35.328-47.104-60.928-47.104-89.6v-49.664h49.664v49.664c0 15.872 8.704 37.376 36.352 62.976 41.472 36.864 62.464 73.728 62.464 110.592 0.512 73.728-43.52 125.44-123.392 125.44zM412.16 259.584h50.176v49.664h-50.176v-49.664zM760.832 832H64v-712.192s9.216-57.856 99.328-59.392 273.92 0 273.92 0c-10.752-1.536 398.336 357.888 398.336 357.888V762.88s-9.728 69.12-74.752 69.12z m12.288-102.912v-287.232L413.696 122.88s-221.696 0.512-239.616 0c-55.296-2.048-48.128 53.248-48.128 53.248V773.12h622.592c31.744 0 24.576-26.112 24.576-44.032zM944.64 278.528l-86.528 80.896-15.36 14.336-15.36-14.336-64.512-60.928-238.08-221.696-4.608-4.096-1.536-6.144-31.744-130.56 143.36 26.112 6.656 1.024 4.608 4.096 238.08 221.696 65.024 60.416 15.36 14.336-15.36 14.848z m-322.56-267.776l-64-11.776 12.8 59.392 199.168 185.856 51.2-47.616-199.168-185.856z m241.152 225.792l-50.176 46.592 30.72 28.672 50.176-46.592-30.72-28.672z"  horiz-adv-x="1024" />

    
    <glyph glyph-name="wentifankui1" unicode="&#59150;" d="M739.5328-1.2288H153.6a76.8 76.8 0 0 0-76.8 76.8V691.2A76.8 76.8 0 0 0 153.6 768h712.192a76.8 76.8 0 0 0 76.8-76.8v-55.0912a25.6 25.6 0 0 0-51.2 0V691.2a25.6 25.6 0 0 1-25.6 25.6H153.6a25.6 25.6 0 0 1-25.6-25.6v-615.6288a25.6 25.6 0 0 1 25.6-25.6h585.9328a25.6 25.6 0 0 0 0-51.2zM256 204.8l382.8736 0.512a25.6 25.6 0 0 1-0.0512 51.2l-382.8736-0.512a25.6 25.6 0 0 1 0.1024-51.2zM256 409.6h228.7616a25.6 25.6 0 0 1 0 51.2H256a25.6 25.6 0 0 1 0-51.2zM773.5296 575.2832c-44.2368 0-78.6432-13.5168-103.2192-40.5504-24.576-25.8048-36.2496-60.2112-36.2496-103.2192h48.5376c0 30.1056 6.7584 53.4528 20.2752 70.656 14.7456 20.2752 37.4784 30.1056 68.1984 30.1056 25.8048 0 46.08-6.7584 60.2112-21.504 13.5168-13.5168 20.8896-32.5632 20.8896-57.1392 0-17.2032-6.144-33.1776-18.432-48.5376a272.384 272.384 0 0 0-20.8896-22.1184c-33.1776-29.4912-53.4528-52.8384-62.0544-71.2704-7.3728-15.36-11.0592-33.1776-11.0592-53.4528v-14.1312h49.152v14.1312c0 16.5888 3.6864 31.3344 11.6736 44.8512 6.144 11.0592 15.36 22.1184 28.8768 33.792 27.0336 23.9616 43.6224 39.936 49.7664 47.3088 15.36 20.2752 23.3472 44.2368 23.3472 71.8848 0 36.864-11.6736 65.7408-34.4064 86.6304-23.9616 22.1184-55.296 32.5632-94.6176 32.5632z m-9.216-374.1696a35.1744 35.1744 0 0 1-26.4192-10.4448 32.9728 32.9728 0 0 1-10.4448-25.8048c0-10.4448 3.072-19.0464 10.4448-26.4192a37.6832 37.6832 0 0 1 26.4192-10.4448 37.6832 37.6832 0 0 1 26.4192 10.4448 33.8944 33.8944 0 0 1 11.0592 26.4192 35.1744 35.1744 0 0 1-10.4448 25.8048 36.5568 36.5568 0 0 1-27.0336 10.4448z"  horiz-adv-x="1024" />

    
    <glyph glyph-name="wentifankui2" unicode="&#58947;" d="M512.843493 889.252059C233.647446 889.252059 6.747941 680.90939 6.747941 424.90939s214.668863-447.894563 499.769357-447.894563c22.7743 0 61.153213 1.686985 93.205931 5.060956a34.836244 34.836244 0 0 0 22.352554-5.482702L759.143328-114.925865a44.789456 44.789456 0 0 1 46.392092-2.108731 46.771664 46.771664 0 0 1 23.617793 42.174629l-4.217463 138.75453a39.053707 39.053707 0 0 0 13.917627 31.630972c118.088962 94.892916 180.085667 208.764415 180.085667 329.383855 0 256-226.899506 464.342669-506.095551 464.342669z m291.004942-749.864909a95.56771 95.56771 0 0 1-35.004942-77.179572l3.795716-118.510708-119.354201 79.710049a89.452389 89.452389 0 0 1-59.466227 14.761121c-29.943987-3.37397-65.792422-5.060956-86.879737-5.060956-253.047776 0-443.6771 168.698517-443.6771 391.802306s201.594728 408.250412 449.581549 408.250412 450.003295-183.037891 450.003294-408.250412c0-104.593081-53.561779-200.751236-158.998352-285.52224z m-345.831961 90.675453a50.820428 50.820428 0 0 1 101.640857 0 50.820428 50.820428 0 0 1-101.640857 0z m140.863262 316.30972a72.413839 72.413839 0 0 1-79.288303 84.349259 83.590115 83.590115 0 0 1-93.205931-93.205931 42.174629 42.174629 0 0 0-84.349258 0 164.902801 164.902801 0 0 0 177.555189 177.555189 151.406919 151.406919 0 0 0 143.815486-81.397034 184.134432 184.134432 0 0 0 19.40033-95.314663 134.663591 134.663591 0 0 0-55.670511-105.436573c-3.795717-2.952224-58.200988-42.174629-66.635914-49.766063a27.076112 27.076112 0 0 1-10.965404-24.461285 42.174629 42.174629 0 0 0-84.349259-0.421746 108.304448 108.304448 0 0 0 38.378913 86.879737c12.652389 11.808896 73.383855 55.248764 72.540363 54.827018a55.586161 55.586161 0 0 1 22.774299 46.392092z"  horiz-adv-x="1025" />

    
    <glyph glyph-name="alikafkaxiaoxiduilieKafka" unicode="&#59556;" d="M558.933 456.533c0-55.466 38.4-100.266 87.467-115.2V300.8c-27.733-6.4-49.067-34.133-49.067-64 0-36.267 29.867-66.133 66.134-66.133 36.266 0 66.133 29.866 66.133 66.133 0 29.867-19.2 55.467-46.933 64v42.667c38.4 2.133 70.4 21.333 91.733 49.066l74.667-42.666c0-2.134-2.134-4.267-2.134-6.4 0-36.267 29.867-66.134 66.134-66.134S979.2 307.2 979.2 343.467c-2.133 36.266-29.867 64-66.133 64-21.334 0-38.4-10.667-53.334-25.6L787.2 424.533c4.267 12.8 6.4 23.467 6.4 36.267 0 19.2-4.267 36.267-12.8 49.067L864 556.8c12.8-12.8 29.867-19.2 46.933-19.2 36.267 0 66.134 29.867 66.134 66.133s-29.867 66.134-66.134 66.134S844.8 640 844.8 603.733c0-4.266 2.133-10.666 2.133-14.933L761.6 539.733c-21.333 21.334-49.067 36.267-81.067 38.4V620.8c27.734 8.533 46.934 34.133 46.934 64 0 36.267-29.867 66.133-66.134 66.133s-64-29.866-64-68.266c0-29.867 21.334-55.467 49.067-64v-46.934c-49.067-12.8-87.467-59.733-87.467-115.2zM919.467 232.533C913.067 162.133 857.6 108.8 787.2 108.8H228.267C155.733 108.8 96 168.533 96 241.067c0 66.133 46.933 121.6 110.933 132.266l27.734 4.267v32c0 119.467 98.133 215.467 215.466 215.467 27.734 0 53.334-4.267 76.8-14.934 10.667 19.2 23.467 38.4 36.267 57.6C526.933 682.667 488.533 691.2 448 691.2c-147.2 0-270.933-115.2-283.733-262.4-83.2-25.6-140.8-104.533-140.8-192 0-110.933 89.6-202.667 202.666-202.667h558.934c110.933 0 200.533 89.6 202.666 200.534 0 2.133 0 4.266 2.134 6.4l-70.4-8.534z"  horiz-adv-x="1024" />

    
    <glyph glyph-name="xiangmuchaxun-chakanshebei" unicode="&#59010;" d="M646 461.2h-123.6c-3.2 0-7.2-3.2-7.2-7.2 0-3.2 3.2-7.2 7.2-7.2h123.6c3.2 0 7.2 3.2 7.2 7.2s-4 7.2-7.2 7.2z m7.2-53.2c0 3.2-3.2 7.2-7.2 7.2h-123.6c-3.2 0-7.2-3.2-7.2-7.2 0-3.2 3.2-7.2 7.2-7.2h123.6c3.2-0.4 7.2 3.2 7.2 7.2z m-130.8-39.6c-3.2 0-7.2-3.2-7.2-7.2 0-3.2 3.2-7.2 7.2-7.2H596c3.2 0 7.2 3.2 7.2 7.2 0 3.2-3.2 7.2-7.2 7.2h-73.6z m-195.2 118c-1.2 2.8-3.2 3.2-7.2 3.2-2.8 0-4.8-1.2-7.2-2.8-15.6-20-16.8-47.6-3.2-68 12-18.8 34.4-29.6 55.6-27.6l60.4-100c2.8-4.8 7.2-7.2 12-8h5.2c3.2 0 7.2 1.2 10.8 2.8l15.6 9.6c4.8 2.8 7.2 7.2 8 12 1.2 4.8 0 10.8-2.8 14l-64.4 97.6c12 18.8 12 43.2 0 62-13.6 20-36.8 30.8-60.4 26.4-2.8 0-4.8-2.8-6-4.8-2.8-1.2-2.8-4.8 0-7.2l18.8-29.6-16.8-10.8-18.4 31.2z m354.4-263.2c-1.2-1.2-3.2-2.8-5.2-4-11.6-7.2-25.6-7.2-36.8 0-2 1.2-3.2 2.8-5.2 4-2.8 2.8-7.2 2.8-10.8 0-1.2-1.2-2-3.2-2-5.2s0.8-4 2-5.2c2-2 4.8-4 7.2-6 2.8-2 5.2-3.2 8.8-4.8 14.8-5.2 30.8-4.8 45.2 4.8 2.8 2 5.2 4 7.2 6 2.8 2.8 2.8 7.2 0 10.8-3.2 2.4-8 2.4-10.4-0.4z m91.2-73.2l-45.6 45.6c10 14 16 30.8 16 49.6 0 45.6-37.6 83.2-83.2 83.2s-82.8-37.6-82.8-83.2 36.8-83.2 83.2-83.2c18.8 0 35.6 6 49.6 16l45.6-45.6c4-4 10-4 14 0l3.2 3.2c4 4 4 10.8 0 14.4z m-112 36.8c-32.4 0-58.4 26.4-58.4 58.4 0 32.4 26.4 58.4 58.4 58.4 32.4 0 58.4-26.4 58.4-58.4s-26.4-58.4-58.4-58.4z m-15.6 90l6 2c2 0.8 4 0.8 6.8 0.8 2 0 4 0 6-0.8s4-0.8 6-2c4-1.2 8 0.8 10 4 0.8 2 0.8 4 0 6s-2 3.2-4 4c-2.8 1.2-6 2-8.8 2.8-3.2 0.8-6 0.8-9.6 0.8-3.2 0-6 0-9.6-0.8-2.8-0.8-6-1.2-8.8-2.8-2-0.8-3.2-2-4-4-0.8-2-0.8-4 0-6 2-3.2 6.8-5.2 10-4zM304 238.4c-14 0-24.8 12-24.8 24.8V525.6c0 14 12 24.8 24.8 24.8h369.6c14 0 24.8-12 24.8-24.8v-186.8c12-4.8 22.8-12 32.4-20.8V525.6c1.2 32-25.2 58.4-58.8 58.4H302.4c-32 0-58.4-26.4-58.4-58.4v-262c0-32.4 26.4-58.4 58.4-58.4h264.8c-4.8 10-7.2 21.6-8 33.6H304z m0 0M763.2 127.2c-3.2 0-6 1.2-8.4 3.6l-44.4 44.4c-14.8-10.4-31.6-15.6-49.6-15.6-47.2 0-85.2 38.4-85.2 85.2s38 85.2 84.8 85.2c47.2 0 85.2-38.4 85.2-85.2 0-18-5.2-34.4-15.6-49.6l44.4-44.4c2.4-2 3.6-4.8 3.6-8.4 0-3.2-0.8-6.4-2.8-8.8l-3.6-3.6c-2.4-1.6-5.6-2.8-8.4-2.8z m-52.4 53.6l46.8-46.8c3.2-3.2 8-3.2 11.2 0l3.2 3.2c1.2 1.6 2 3.6 2 6s-0.8 4-2.4 5.2l-46.8 46.8 0.8 1.2c10.4 14.8 15.6 30.8 15.6 48.4 0 44.8-36.4 81.2-81.2 81.2-44.4 0-80.8-36.4-80.8-81.2S616 164 660.8 164c17.6 0 34 5.2 48.4 15.6l1.6 1.2z m-50 4c-33.2 0-60.4 27.2-60.4 60.4s27.2 60.4 60.4 60.4 60.4-27.2 60.4-60.4-27.2-60.4-60.4-60.4z m0 116.8c-31.2 0-56.4-25.2-56.4-56.4s25.2-56.4 56.4-56.4 56.4 25.2 56.4 56.4-25.6 56.4-56.4 56.4z m-3.2-105.2c-6.4 0-12.8 1.2-19.2 3.6-4 1.6-6.8 3.2-9.2 4.8-2.8 2-5.6 4-7.6 6.4-1.6 1.6-2.8 4-2.8 6.8s0.8 5.2 2.8 6.8c4.4 3.6 10 3.2 13.6 0 0.8-0.4 1.6-1.2 2.4-2 0.8-0.8 1.6-1.2 2.4-2 10.8-6.8 24-6.8 34.8 0 2 1.2 4 2.4 5.2 3.6 3.2 3.2 9.6 3.2 12.8 0 3.6-4.4 3.2-10 0-13.6-2-2-4.8-4-7.6-6-8.4-5.6-17.6-8.4-27.6-8.4z m-87.2 6.4h-268c-33.2 0-60.4 27.2-60.4 60.4V525.6c0 33.2 27.2 60.4 60.4 60.4H672c17.2 0 33.2-6.8 44.8-18.4 10.8-11.2 16.4-26.4 16-42v-212l-3.2 3.2c-10 9.2-20.8 16-31.6 20.4l-1.2 0.4v188c0 11.2-9.2 22.8-22.8 22.8H304c-11.2 0-22.8-9.2-22.8-22.8v-262c0-11.2 9.2-22.8 22.8-22.8h257.2v-2c0.8-12 3.2-23.2 8-32.8l1.2-3.2z m-268 379.2c-31.2 0-56.4-25.2-56.4-56.4v-262c0-31.2 25.2-56.4 56.4-56.4H564c-3.6 8.8-6 18.8-6.8 29.6H304c-14.4 0-26.8 12.4-26.8 26.8V525.6c0 14.4 12.4 26.8 26.8 26.8h369.6c14.4 0 26.8-12.4 26.8-26.8V340c9.6-4 19.2-10 28.4-17.6V525.6c0.8 14.8-4.8 28.4-14.8 39.2-10.8 11.2-25.6 17.2-41.6 17.2H302.4z m340.4-307.6c-3.6 0-7.6 2.4-8.8 5.6-0.8 2.4-0.8 4.8 0 7.6 0.8 2.4 2.8 4.4 5.2 5.2 2 1.2 5.2 2 7.6 2.4l1.2 0.4c3.6 0.8 6.4 0.8 10 0.8s6.4 0 10-0.8l1.6-0.4c2.4-0.8 5.2-1.2 8-2.4 2.4-0.8 4-2.4 5.2-5.2 0.8-2.4 0.8-4.8 0-7.2v-0.4c-2.8-4.4-7.6-6.4-12.4-4.8l-0.4 0.4c-1.2 0.8-2 0.8-3.2 1.2-0.8 0-1.6 0.4-2.4 0.4-1.6 0.4-3.6 0.4-5.6 0.4-2.4 0-4.4 0-6-0.4l-6-2c-2-0.4-2.8-0.8-4-0.8z m-200 7.2h-5.2c-6 0.8-11.2 4.4-14 9.2l-60 99.2c-22-1.6-44 9.6-56.4 28.4-14 20.8-12.8 49.2 3.6 70l0.4 0.4 1.6 0.8c2 1.2 4.4 2.4 6.8 2.4 4.4 0 7.2-0.8 9.2-4.4l17.2-29.6 13.2 8.4-17.6 27.6c-2 2-2.8 4.4-2.4 6.4 0.4 1.6 1.2 2.8 2.4 3.6 1.2 2 3.6 5.2 7.6 5.2 23.6 4.8 48-6 62-27.2 12.4-19.2 12.4-43.6 0.8-62.8l64-96.4c3.2-4 4.4-10.4 2.8-15.6-0.8-5.6-4-10.4-8.8-13.2l-15.6-9.2c-4.8-2.4-8.4-3.2-11.6-3.2z m-76.8 112.4l61.2-101.2c2-4 6-6.4 10.8-7.2h5.2c2.4 0 5.6 0.8 10 2.4l15.2 9.2c4 2 6.4 6 7.2 10.8 1.2 4 0 9.6-2.4 12.4L408 419.2l0.8 1.2c11.6 18 11.6 41.6 0 59.6-13.2 20-36 29.6-58.4 25.2-2 0-3.6-2-4.8-4l-0.4-0.4-0.4-0.4c-0.4-0.4-0.8-0.8-0.8-1.2 0-0.8 0.4-2 1.6-3.2l0.4-0.4 20-31.2-20.4-12.8-19.2 33.6c-0.8 1.6-1.6 2.4-5.6 2.4-1.6 0-3.2-0.8-5.2-1.6l-0.8-0.4c-14.8-19.6-16-45.6-3.2-65.2 11.6-18 32.8-28.8 54-26.8l0.4 0.4zM763.2 125.2c-3.6 0-7.2 1.6-10 4.4l-43.2 43.2c-14.8-10-31.6-14.8-49.2-14.8-48 0-87.2 39.2-87.2 87.2s38.8 87.2 86.8 87.2 87.2-39.2 87.2-87.2c0-17.6-5.2-34.4-14.8-49.2l43.2-43.2c2.8-2.4 4.4-5.6 4.4-9.6 0-3.6-1.2-7.2-3.2-10l-3.6-3.6c-3.2-2.8-6.8-4.4-10.4-4.4z m-6.4 6.4c4-3.2 9.6-3.2 13.2 0.4-4-3.6-9.2-3.6-13.2-0.4z m-46 51.6l48-48c2.4-2.4 6-2.4 8.4 0l3.2 3.2c0.8 0.8 1.2 2.8 1.2 4.4 0 1.6-0.8 3.2-1.6 4l-48.4 48.4 2 2.8c10.4 14.4 15.2 30.4 15.2 47.6 0 43.6-35.6 79.2-79.2 79.2-43.2 0-78.8-35.6-78.8-79.2s35.6-79.2 79.2-79.2c17.2 0 33.2 5.2 47.6 15.2l3.2 1.6z m62.8-47.2l-0.4-0.4 0.4 0.4z m-0.4 13.6c1.2-1.2 2.4-3.2 2.4-5.2 0 2-0.8 3.6-2.4 5.2zM730.8 192l42.4-42.4-42.4 42.4z m-153.6 53.2c0-46 37.2-83.2 83.2-83.2-45.6 0-83.2 37.2-83.2 83.2z m83.6-83.2z m0 0z m0 0z m0 0z m0 0z m0.4 0z m0 0z m0 0z m0 0z m0 0z m0 0z m40 10.4z m9.2 5.6c-3.2-2-6-4-9.2-6 2.8 1.6 5.2 3.2 8 4.8l1.2 1.2z m16.8 17.6l0.8 1.2c3.2 4.8 6 9.6 8 14.4-2-5.2-5.2-10.4-8.8-15.6z m9.2 15.6z m6.8 33.2z m0 0z m0 0z m0 0.4z m0 0z m0 0z m0 0z m0 0z m0 0z m0 0z m0 0.4c0-0.4 0-0.4 0 0 0-0.4 0-0.4 0 0z m0 0z m0 0z m0 0z m0 0z m0 0z m-82.4-62.4c-34.4 0-62.4 28-62.4 62.4s28 62.4 62.4 62.4 62.4-28 62.4-62.4-28-62.4-62.4-62.4z m-58.8 62.4c0-32.4 26.4-58.4 58.4-58.4 32.4 0 58.4 26.4 58.4 58.4 0-32.4-26.4-58.4-58.4-58.4s-58.4 26.4-58.4 58.4z m58.8 54.4c-30 0-54.4-24.4-54.4-54.4s24.4-54.4 54.4-54.4 54.4 24.4 54.4 54.4-24.4 54.4-54.4 54.4z m-3.2-105.2c-6.4 0-13.2 1.2-20 3.6-4.4 1.6-7.2 3.2-9.6 5.2-2.8 2-5.6 4.4-8 6.4-2 2-3.2 5.2-3.2 8.4s1.2 6 3.2 8.4c5.2 4 12 4 16.4 0 0.8-0.4 1.6-1.2 2.4-2 0.8-0.8 1.6-1.2 2.4-2 10-6.4 22.4-6.4 32.4 0 2 1.2 3.6 2.4 4.8 3.6 4 4 11.6 4 15.6 0 4.4-5.2 4-12.4 0-16.4-2-2-4.8-4.4-7.6-6.4-8.4-6-18.4-8.8-28.8-8.8z m-28.8 30.8c-2 0-4-0.8-6-2-1.2-1.2-2-3.2-2-5.2s0.8-4 2-5.2c2-2 4.8-4 7.2-6 2.4-2 5.2-3.2 8.8-4.8 6-2.4 12.4-3.2 18.4-3.2 9.6 0 18.8 2.8 26.8 8 2.4 2 5.2 4 7.2 6 2.8 2.8 2.8 7.6 0 10.8-2.4 2.4-7.2 2.4-10 0-1.2-1.2-3.2-2.8-5.2-4-11.6-7.6-25.6-7.6-36.8 0-0.8 0.8-1.6 1.2-2.4 2-0.8 0.8-1.6 1.2-2.4 2l-0.4 0.4c-1.6 0.4-3.2 1.2-5.2 1.2z m-55.2-24.4H302.4c-34.4 0-62.4 28-62.4 62.4V525.6C240 560 268 588 302.4 588H672c18 0 34-6.8 46-19.2 11.2-11.6 17.2-27.2 16.4-43.6v-216.8l-6.8 6.4c-10 9.2-20.4 16-30.8 20l-2.4 0.8V525.6c0 10-8.4 20.8-20.8 20.8H304c-10 0-20.8-8.4-20.8-20.8v-262c0-10 8.4-20.8 20.8-20.8h259.2l0.4-3.6c0.8-11.6 3.2-22.4 7.6-32l2.4-6.4zM244 263.6c0-32.4 26.4-58.4 58.4-58.4h264.8l-1.2 2.4 1.2-2.4H302.4c-32-0.4-58.4 26-58.4 58.4zM302.4 580C272.4 580 248 555.6 248 525.6v-262c0-30 24.4-54.4 54.4-54.4h258.8c-3.2 8-4.8 16.4-5.6 25.6H304c-15.6 0-28.8 13.2-28.8 28.8V525.6c0 15.6 13.2 28.8 28.8 28.8h369.6c15.6 0 28.8-13.2 28.8-28.8v-184c8.4-3.6 16.4-8.4 24.4-14.8V525.6c0.4 14-4.4 27.6-14 37.6-10.4 10.8-24.8 16.8-40.4 16.8H302.4z m256.8-341.6v0z m-280.4 24.8c0-6.8 2.8-12.8 7.6-17.6-4.8 5.2-7.6 11.6-7.6 17.6z m0 0.4c0-0.4 0-0.4 0 0 0-0.4 0 0 0 0z m0 262v-262 262z m448.8-205.2c1.2-0.8 2-1.6 2.8-2.8v208c0.4 14-4 27.2-12.8 38 8.8-10.4 13.6-24 12.8-38v-207.6l-2.8 2.4z m-29.2 18.4c0.4 0 0.8-0.4 0.8-0.4l-0.8 0.4z m0 186.8z m-7.6 17.6c4.8-4.8 7.6-11.2 7.6-17.6 0 6.8-2.8 12.8-7.6 17.6z m-387.2 7.2c-6.8 0-12.8-2.8-17.6-7.6 5.2 4.8 11.6 7.6 17.6 7.6z m0 0z m0.4 0h369.6H304z m338.8-278c-4.8 0-9.2 2.8-10.8 6.8-1.2 3.2-1.2 6 0 8.8 1.2 3.2 3.2 5.6 6.4 6.4 2 1.2 5.2 2 7.6 2.4l1.2 0.4c4 0.8 6.8 0.8 10.4 0.8 3.6 0 6.4 0 10-0.8l1.6-0.4c2.8-0.8 5.6-1.2 8.4-2.8 2.8-0.8 4.8-3.2 6-6.4 0.8-2.8 0.8-5.6 0-8.4l-0.4-0.4c-3.2-5.6-9.2-8-14.8-6l-0.8 0.4c-0.8 0.4-1.6 0.8-2.8 1.2-0.8 0-1.6 0.4-2.4 0.8-1.2 0.4-2.8 0.4-4.8 0.4-2.4 0-4 0-5.6-0.4l-6-2c-0.4-0.4-1.6-0.8-3.2-0.8z m15.2 7.2c2 0 4 0 6-0.8 0.8-0.4 1.2-0.4 2-0.4 1.2-0.4 2.8-0.4 4-1.6h0.4c3.6-1.2 7.6 0.4 10 4 0.4 2 0.4 4 0 6-0.8 2-2 3.2-3.6 4-2.4 1.2-5.2 2-7.6 2.4l-1.6 0.4c-3.2 0.8-6 0.8-9.2 0.8s-6 0-9.6-0.8l-1.2-0.4c-2.4-0.4-5.2-1.2-7.2-2.4-2.4-0.8-3.6-2-4.4-4-0.8-2-0.8-4 0-6 1.2-3.2 6-5.2 9.2-4l6 2c2 0.8 4 0.8 6.8 0.8z m-215.2 0h-5.2c-6.8 0.8-12.4 4.8-15.6 10l-59.2 98c-22.4-1.2-44.8 10.4-56.8 29.6-14.4 21.6-13.2 50.8 3.6 72.4l0.8 0.8 1.6 0.8c2.4 1.2 4.8 2.4 8 2.4 4.4 0 8.4-0.8 10.8-5.6l16-28 10 6.4-16.4 26c-2 2-3.2 5.2-2.8 7.6 0.4 2 1.6 3.6 3.2 4.8 1.2 1.6 4.4 5.6 8.8 5.6 24 4.8 49.2-6 64-28 12.4-19.2 12.8-44.4 1.6-64l63.2-95.2c3.6-4.4 4.8-11.6 3.2-17.6-0.8-5.6-4.8-11.6-10-14.4l-15.2-9.2c-6.4-1.6-10-2.4-13.6-2.4z m-69.2 98l52-86c2.4-4.4 7.2-7.2 12.4-8-5.2 0.8-10 3.6-12.4 8l-52 86z m77.2-92.4c-3.2-1.2-5.6-1.6-7.6-1.6 2 0 4.4 0.4 7.6 1.6zM367.2 396l61.6-102.4c2-3.2 5.2-5.6 9.2-6h4.8c2 0 5.2 0.8 9.2 2.4l14.8 9.2c3.2 2 5.6 5.2 6 9.2 1.2 3.6 0 8.4-2 11.2l-66 100 1.6 2c11.2 17.6 11.2 40 0 57.6-12.8 19.2-34.8 28.8-56.4 24.4-1.6 0-3.2-2.4-3.6-2.8l-0.4-0.8-0.8-0.4c0-0.4 0.4-0.8 0.8-1.2l0.4-0.4 21.2-33.2-23.6-15.2-20.4 35.2c-0.4 0.8-0.8 1.2-4 1.2-1.2 0-2.4-0.4-4.4-1.6l-0.4-0.4c-14-18.8-15.2-44-2.8-62.4 11.2-17.6 31.6-27.6 52-25.6h3.2z m102-100.4z m0.4 0.4l-0.4-0.4 0.4 0.4z m0.4 0s-0.4 0 0 0c-0.4 0 0 0 0 0z m0 0z m-53.2 112.8l57.6-87.2c2.8-3.6 4-9.6 2.4-14.4 0-0.8-0.4-1.6-0.4-2.4 0.4 0.8 0.4 1.6 0.4 2.4 1.2 4.8 0.4 10.8-2.4 14.4l-57.6 87.2z m-52-17.2h-2.4 2.4z m45.2 27.6l0.4-0.4-0.4 0.4 0.4 0.8s-0.4-0.4-0.4-0.8z m-97.6 68c-14.8-19.6-16.8-45.6-4.8-65.6-11.6 20-10 45.6 4.8 65.6z m14.8-0.4l11.6-20.4-11.2 19.6-0.4 0.8z m16 8.8l17.6-27.6-17.6 27.6z m17.6 12.8c18.4 0 36.4-9.2 48-25.2-12.4 17.2-32 26.4-51.6 25.2h3.6z m-48.4-21.2l1.2 0.8h0l-1.2-0.8z m10.8 2.4c1.6-0.4 2.8-1.2 3.6-2.4-0.8 1.2-2 2-3.6 2.4z m-3.2 0.4z m25.6 15.2c-0.8-0.8-1.6-2-2-2.4l-0.8-0.4c-0.8-0.4-1.6-1.2-1.6-2.4 0-0.8 0-1.6 0.4-2.4-0.4 0.8-0.4 1.6-0.4 2.4 0 1.2 0.8 2 2 2.4 0.8 1.2 1.6 2 2.4 2.8z"  horiz-adv-x="1024" />

    
    <glyph glyph-name="elasticsearchElasticsearch" unicode="&#59041;" d="M128 388.266667c0-42.666667 4.266667-89.6 19.2-128h290.133333c10.666667 42.666667 14.933333 78.933333 14.933334 123.733333 0 40.533333-4.266667 83.2-14.933334 123.733333H142.933333C134.4 469.333333 128 433.066667 128 388.266667z m582.4 119.466666H490.666667c10.666667-36.266667 14.933333-78.933333 14.933333-123.733333s-4.266667-78.933333-14.933333-123.733333h219.733333c68.266667 0 121.6 53.333333 121.6 123.733333s-53.333333 123.733333-121.6 123.733333zM172.8 565.333333h249.6c-29.866667 64-64 123.733333-102.4 170.666667-64-42.666667-119.466667-100.266667-147.2-170.666667z m580.266667 0c64 0 117.333333 25.6 155.733333 68.266667C832 742.4 701.866667 810.666667 554.666667 810.666667c-72.533333 0-132.266667-17.066667-192-49.066667 49.066667-53.333333 83.2-121.6 108.8-192l281.6-4.266667z m-586.666667-362.666666h249.6c-25.6-64-57.6-121.6-102.4-164.266667-57.6 36.266667-113.066667 93.866667-147.2 164.266667z m588.8 0c64 0 117.333333-25.6 155.733333-68.266667C832 27.733333 695.466667-42.666667 554.666667-42.666667c-72.533333 0-132.266667 21.333333-192 46.933334 49.066667 53.333333 83.2 123.733333 108.8 192l283.733333 6.4z"  horiz-adv-x="1024" />

    
    <glyph glyph-name="511tongji_shutu" unicode="&#58954;" d="M448 320h326.4c12.8-38.4 51.2-64 89.6-64 51.2 0 96 44.8 96 96s-44.8 96-96 96c-44.8 0-76.8-25.6-89.6-64H448V704h326.4c12.8-38.4 51.2-64 89.6-64 51.2 0 96 44.8 96 96s-44.8 96-96 96c-44.8 0-76.8-25.6-89.6-64H384v-384H185.6c-12.8 38.4-44.8 64-89.6 64-51.2 0-96-44.8-96-96s44.8-96 96-96c44.8 0 76.8 25.6 89.6 64H384v-384h390.4c12.8-38.4 51.2-64 89.6-64 51.2 0 96 44.8 96 96s-44.8 96-96 96c-44.8 0-76.8-25.6-89.6-64H448V320z"  horiz-adv-x="1024" />

    
    <glyph glyph-name="fenxiang1" unicode="&#58901;" d="M220.578951 482.452506a107.866009 107.866009 0 1 0-107.683186-107.866009 107.866009 107.866009 0 0 0 107.683186 107.866009m0 73.129498a180.995507 180.995507 0 1 1 181.726802-180.995507 180.812684 180.812684 0 0 1-180.812684 180.995507zM751.316282 80.423091a67.644786 67.644786 0 1 0-67.461962-67.461962 67.644786 67.644786 0 0 0 67.461962 67.461962m0 73.129498a140.774284 140.774284 0 1 1 140.774284-140.59146 140.59146 140.59146 0 0 1-140.774284 140.59146zM843.642273 822.870319a67.644786 67.644786 0 1 0-67.644785-67.644785 67.644786 67.644786 0 0 0 67.644785 67.644785m0 73.129498a140.774284 140.774284 0 1 1 140.59146-140.774283A140.774284 140.774284 0 0 1 843.642273 895.999817zM282.519635 241.18001000000004l40.221224 69.655847L711.277882 86.529404l-40.221224-69.655846zM294.64085 475.249251L734.752451 728.1859019999999l40.221224-69.98493L334.843791 405.264321z"  horiz-adv-x="1024" />

    
    <glyph glyph-name="fenxiang2" unicode="&#58895;" d="M711.9-63.9c-10.8 0-21.5 3.3-30.7 9.7L495.3 75.1c-1.5 1-3.5 0.9-4.8-0.4l-72-68.4c-16.2-15.4-39.7-19.2-59.8-9.7-20.2 9.4-32.3 29.9-30.9 52.2l9 141.8c0.8 12.1 5.7 23.8 13.9 32.8l216 237.8c9.3 10.2 25.1 11 35.3 1.7 10.2-9.3 11-25.1 1.7-35.3l-216-237.8c-0.6-0.6-0.9-1.5-1-2.3l-9-141.8c0-0.8-0.2-2.6 2.2-3.7 2.4-1.1 3.7 0.2 4.2 0.7l72 68.4c18.4 17.5 46.9 19.7 67.8 5.2l185.9-129.4c1.1-0.8 2.4-0.9 3.6-0.4 1.3 0.5 2.1 1.5 2.3 2.8L858.2 756c0.1 0.6 0.4 2.3-1.5 3.7-1.9 1.4-3.4 0.7-4 0.4l-745.9-372c-0.5-0.2-2-1-2.1-3.2-0.1-2.2 1.3-3.1 1.8-3.4l198-123.2c11.7-7.3 15.3-22.7 8-34.4s-22.7-15.3-34.4-8L80 339c-16.5 10.3-26.2 28.8-25.3 48.2 0.9 19.5 12.3 36.9 29.7 45.6l745.9 372c18.4 9.2 40 7.2 56.4-5.2s24.3-32.6 20.5-52.8L764.9-19.9c-3.4-18-15.5-33-32.5-40-6.6-2.7-13.6-4-20.5-4z"  horiz-adv-x="1024" />

    
    <glyph glyph-name="fenxiang_2" unicode="&#58880;" d="M779.636364-58.18181800000002h-535.272728A174.778182 174.778182 0 0 0 69.818182 116.36363600000004v535.272728A174.778182 174.778182 0 0 0 244.363636 826.181818H512a34.909091 34.909091 0 0 0 0-69.818182H244.363636A104.96 104.96 0 0 1 139.636364 651.636364v-535.272728a104.96 104.96 0 0 1 104.727272-104.727272h535.272728a104.96 104.96 0 0 1 104.727272 104.727272V384a34.909091 34.909091 0 0 0 69.818182 0v-267.636364a174.778182 174.778182 0 0 0-174.545454-174.545454zM500.363636 337.45454500000005a35.141818 35.141818 0 0 0-24.669091 10.24 34.676364 34.676364 0 0 0 0 49.338182l418.909091 418.909091a34.909091 34.909091 0 0 0 49.338182-49.338182l-418.909091-418.909091a35.141818 35.141818 0 0 0-24.669091-10.24zM919.272727 756.363636h-186.181818a34.909091 34.909091 0 0 0 0 69.818182h186.181818a34.909091 34.909091 0 0 0 0-69.818182zM919.272727 570.181818a34.909091 34.909091 0 0 0-34.909091 34.909091v186.181818a34.909091 34.909091 0 0 0 69.818182 0v-186.181818a34.909091 34.909091 0 0 0-34.909091-34.909091z"  horiz-adv-x="1024" />

    
    <glyph glyph-name="NMStubiao-" unicode="&#58920;" d="M507.2 744c9.1 0 17.8 3.6 24.2 10 6.4 6.4 10 15.1 10 24.2V846.9c0 18.9-15.3 34.3-34.3 34.3s-34.3-15.3-34.3-34.3v-68.6c0.1-18.9 15.5-34.3 34.4-34.3zM100 622.8c13.5-13 34.8-12.8 48.1 0.4 13.2 13.2 13.4 34.6 0.4 48.1L100 719.8c-13.5 13-34.8 12.8-48.1-0.4-13.2-13.2-13.4-34.6-0.4-48.1l48.5-48.5z m871.2 62.7c-13.4 13.4-35.1 13.4-48.5 0L874.3 637c-13-13.5-12.8-34.8 0.4-48.1 13.2-13.2 34.6-13.4 48.1-0.4l48.5 48.5c13.3 13.4 13.3 35.1-0.1 48.5z m-35.5-729.9h-51.4v377c0 208.3-168.8 377.1-377.1 377.1S130.1 540.9 130.1 332.6v-377.1H78.7c-18.9 0-34.3-15.3-34.3-34.3s15.3-34.3 34.3-34.3h857c18.9 0 34.3 15.3 34.3 34.3s-15.4 34.4-34.3 34.4z m-394.2 0V92.7c0 18.9-15.3 34.3-34.3 34.3s-34.3-15.3-34.3-34.3v-137.1H198.7v377c0 170.4 138.1 308.5 308.5 308.5S815.7 503 815.7 332.6v-377.1H541.5z m0 0M531.4 541.7l-128-200.9c-2.1-3.3 0.3-7.6 4.2-7.6h102.6c3 0 5.4-2.7 4.9-5.7l-23.5-141.2c-0.9-5.3 6.1-8 9-3.5l128 200.9c2.1 3.3-0.3 7.6-4.2 7.6H521.8c-3 0-5.4 2.7-4.9 5.7l23.5 141.2c0.9 5.3-6.1 8-9 3.5z"  horiz-adv-x="1024" />

    
    <glyph glyph-name="wanchenganquanshijian" unicode="&#59018;" d="M237.17 585.18h434.66v-50H237.17zM237.17 416.71h221.75v-50H237.17zM802.18 321.58a396.32 396.32 0 0 1 8.82 83.11V662.63L441.47 829.46 98 662.63V396a395.92 395.92 0 0 1 154.1-313.47l189.37-146.09L566 25.73a197.7 197.7 0 0 1 163.39-86.19c109.31 0 197.93 88.62 197.93 197.93a198 198 0 0 1-125.14 184.11zM442.75 9.33L287.82 128.85A337.36 337.36 0 0 0 156.5 396V626l285.88 138.87 310.12-140v-220.18a336.57 336.57 0 0 0-7.37-69.91q-7.8 0.62-15.75 0.62c-109.31 0-197.93-88.61-197.93-197.93a197.89 197.89 0 0 1 8.72-58.28zM834 32.87a147.92 147.92 0 0 0-209.2 0 149.48 149.48 0 0 0-18.16 22 146.23 146.23 0 0 0-22.74 55.67 149.64 149.64 0 0 0-2.43 26.94A147.92 147.92 0 0 0 729.38 285.4h1.29A147.92 147.92 0 0 0 834 32.87zM802.36 211.74l-95.49-95.5-50.47 50.47-35.36-35.35 85.83-85.83 130.85 130.85-35.36 35.36z"  horiz-adv-x="1024" />

    
    <glyph glyph-name="eventbridgexiaoxishijianzongxian" unicode="&#59213;" d="M874.666667 186.026667V619.946667L704 789.333333H467.2v-1.493333L529.706667 725.333333h149.333333L810.666667 592V213.333333h-10.666667a117.12 117.12 0 0 1-56.746667-14.72L640 303.36l35.413333 126.08-117.12 117.12L431.36 512l-102.4 102.4a117.333333 117.333333 0 1 1-200.96-5.76v-460.586667h1.28L298.666667-21.333333h256l-64 64h-164.906667L192 176v384a123.093333 123.093333 0 0 1 34.56-5.12 116.693333 116.693333 0 0 1 55.893333 14.08l102.186667-101.973333-35.84-128 117.12-117.12 128 35.84 103.68-103.68a117.333333 117.333333 0 1 1 177.066667 32zM173.866667 672a53.333333 53.333333 0 1 0 106.666666 0 53.333333 53.333333 0 0 0-106.666666 0z m247.253333-314.666667L448 448l91.733333 25.813333 64-64-25.813333-91.946666-91.733333-25.6-65.066667 65.066666z m426.666667-288A53.333333 53.333333 0 0 0 800.426667 42.666667a50.346667 50.346667 0 0 0-26.453334 7.253333 53.333333 53.333333 0 1 0 72.746667 19.413333h1.066667z"  horiz-adv-x="1024" />

    
    <glyph glyph-name="shu" unicode="&#58921;" d="M448.84 15.71H175.37c-20.14 0-36.46 16.33-36.46 36.46 0 20.14 16.33 36.46 36.46 36.46h273.48c20.14 0 36.46-16.33 36.46-36.46 0-20.14-16.33-36.46-36.47-36.46zM448.84 307.42H175.37c-20.14 0-36.46 16.33-36.46 36.46 0 20.14 16.33 36.46 36.46 36.46h273.48c20.14 0 36.46-16.33 36.46-36.46 0-20.14-16.33-36.46-36.47-36.46zM138.9 52.17V599.12c0 20.14 16.33 36.46 36.46 36.46 20.14 0 36.46-16.33 36.46-36.46v-546.95c0-20.14-16.33-36.46-36.46-36.46-20.13 0-36.46 16.32-36.46 36.46zM211.83 547.84H138.9c-40.11 0-72.93 32.82-72.93 72.93V693.7c0 40.11 32.82 72.93 72.93 72.93h72.93c40.11 0 72.93-32.82 72.93-72.93v-72.93c0-40.11-32.82-72.93-72.93-72.93zM922.87 270.95H605.12c-20.05 0-36.46 16.41-36.46 36.46v72.93c0 20.05 16.41 36.46 36.46 36.46h317.75c20.05 0 36.46-16.41 36.46-36.46v-72.93c0-20.05-16.41-36.46-36.46-36.46zM921.67 584.31h-508.1c-20.71 0-37.66 16.95-37.66 37.66V692.5c0 20.71 16.95 37.66 37.66 37.66h508.1c20.71 0 37.66-16.95 37.66-37.66v-70.54c0-20.71-16.94-37.65-37.66-37.65zM922.87-20.76H605.12c-20.05 0-36.46 16.41-36.46 36.46v72.93c0 20.05 16.41 36.46 36.46 36.46h317.75c20.05 0 36.46-16.41 36.46-36.46v-72.93c0-20.05-16.41-36.46-36.46-36.46z"  horiz-adv-x="1024" />

    
    <glyph glyph-name="shebeiguanji" unicode="&#58909;" d="M704 160a32 32 0 1 0 3.744-63.776L704 96H320a31.968 31.968 0 0 0-3.744 63.776L320 160h384z m32 512a95.872 95.872 0 0 0 95.84-90.368L832 576v-288a95.872 95.872 0 0 0-90.336-95.84L736 192H288a95.872 95.872 0 0 0-95.84 90.336L192 288v288a95.872 95.872 0 0 0 90.336 95.84L288 672h448z m0-64H288a31.968 31.968 0 0 1-31.776-28.256L256 576v-288a32 32 0 0 1 28.256-31.808L288 256h448a31.968 31.968 0 0 1 31.776 28.256L768 288v288a32 32 0 0 1-28.256 31.776L736 608z m-286.624-91.968a24.32 24.32 0 0 0 2.048-34.72 63.328 63.328 0 0 1-16.512-42.752c0-35.52 29.344-64.32 65.536-64.32 36.16 0 65.504 28.8 65.504 64.32 0 15.904-5.824 30.816-16.32 42.496a24.32 24.32 0 0 0 2.304 34.72 25.408 25.408 0 0 0 35.36-2.24 112 112 0 0 0 28.8-74.976c0-62.72-51.776-113.536-115.648-113.536-63.904 0-115.68 50.848-115.68 113.536a112 112 0 0 0 29.216 75.424 25.408 25.408 0 0 0 35.392 2.048z m51.296 40.32c12.704 0 23.168-9.216 24.832-21.248l0.224-3.36V473.6c0-13.632-11.2-24.608-25.056-24.608a24.896 24.896 0 0 0-24.832 21.248l-0.224 3.36v58.112c0 13.632 11.2 24.608 25.056 24.608z"  horiz-adv-x="1024" />

    
    <glyph glyph-name="haofangtuo400iconfontduanxin" unicode="&#59096;" d="M348.16 389.12m-40.96 0a40 40 0 1 0 81.92 0 40 40 0 1 0-81.92 0ZM512 389.12m-40.96 0a40 40 0 1 0 81.92 0 40 40 0 1 0-81.92 0ZM675.84 389.12m-40.96 0a40 40 0 1 0 81.92 0 40 40 0 1 0-81.92 0ZM879.387648 521.911296c-20.342784 40.297472-49.386496 76.422144-86.327296 107.370496C717.819904 692.322304 618.00448 727.04 512 727.04s-205.819904-34.717696-281.061376-97.758208c-36.939776-30.949376-65.984512-67.074048-86.327296-107.370496C123.39712 479.88736 112.64 435.21024 112.64 389.12c0-49.606656 12.394496-97.39776 36.841472-142.045184 21.1712-38.665216 50.282496-73.055232 86.662144-102.404096L195.67616 27.147264c-2.697216-7.832576-0.4096-16.51712 5.793792-22.006784 3.823616-3.383296 8.67328-5.141504 13.574144-5.141504 3.049472 0 6.119424 0.68096 8.974336 2.072576l145.844224 71.133184C415.199232 58.600448 462.973952 51.2 512 51.2c106.00448 0 205.819904 34.717696 281.061376 97.758208 36.939776 30.949376 65.984512 67.074048 86.327296 107.370496C900.60288 298.35264 911.36 343.02976 911.36 389.12S900.60288 479.88736 879.387648 521.911296zM512 92.16c-47.425536 0-93.503488 7.565312-136.951808 22.486016-5.13024 1.76128-10.753024 1.416192-15.630336-0.96256L250.50112 60.561408l29.14304 84.635648c2.902016 8.426496 0.021504 17.762304-7.124992 23.088128-37.219328 27.739136-66.527232 60.865536-87.110656 98.459648C164.301824 305.294336 153.6 346.466304 153.6 389.12c0 163.743744 160.77824 296.96 358.4 296.96s358.4-133.216256 358.4-296.96S709.62176 92.16 512 92.16z"  horiz-adv-x="1024" />

    
    <glyph glyph-name="navicon-ywcs" unicode="&#58977;" d="M928.768-117.75999999999999H138.752c-14.336 0-25.6 11.264-25.6 25.6V849.92c0 14.336 11.264 25.6 25.6 25.6h790.016c14.336 0 25.6-11.264 25.6-25.6v-942.08c0-14.336-11.264-25.6-25.6-25.6zM164.352-66.55999999999995h738.816V824.3199999999999H164.352v-890.88zM623.616 322.55999999999995c-67.072 0-121.344 54.272-121.344 121.344s54.272 121.344 121.344 121.344 121.344-54.272 121.344-121.344-54.272-121.344-121.344-121.344z m0 191.488c-38.912 0-70.144-31.232-70.144-70.144s31.232-70.144 70.144-70.144 70.144 31.232 70.144 70.144-31.232 70.144-70.144 70.144zM442.88 46.08000000000004c-67.072 0-121.344 54.272-121.344 121.344s54.272 121.344 121.344 121.344 121.344-54.272 121.344-121.344S509.952 46.08000000000004 442.88 46.08000000000004z m0 191.488c-38.912 0-70.144-31.232-70.144-70.144S403.968 97.27999999999997 442.88 97.27999999999997s70.144 31.232 70.144 70.144-31.232 70.144-70.144 70.144zM516.608 418.304H279.552c-14.336 0-25.6 11.264-25.6 25.6s11.264 25.6 25.6 25.6h237.056c14.336 0 25.6-11.264 25.6-25.6s-11.264-25.6-25.6-25.6zM787.456 141.82399999999996h-237.056c-14.336 0-25.6 11.264-25.6 25.6s11.264 25.6 25.6 25.6h237.056c14.336 0 25.6-11.264 25.6-25.6s-11.264-25.6-25.6-25.6zM787.456 423.936h-28.672c-14.336 0-25.6 11.264-25.6 25.6s11.264 25.6 25.6 25.6h28.672c14.336 0 25.6-11.264 25.6-25.6s-11.264-25.6-25.6-25.6zM307.712 141.82399999999996h-28.16c-14.336 0-25.6 11.264-25.6 25.6s11.264 25.6 25.6 25.6h28.16c14.336 0 25.6-11.264 25.6-25.6s-11.264-25.6-25.6-25.6zM646.144 694.784H420.352c-14.336 0-25.6 11.264-25.6 25.6s11.264 25.6 25.6 25.6h225.792c14.336 0 25.6-11.264 25.6-25.6s-11.264-25.6-25.6-25.6z"  horiz-adv-x="1024" />

    
    <glyph glyph-name="liebiao" unicode="&#58976;" d="M255.3 758.7c-59 0-107-48-107-107s48-107 107-107 107 48 107 107-48 107-107 107z m0-167.9c-33.6 0-61 27.4-61 61s27.4 61 61 61 61-27.4 61-61-27.4-61-61-61zM427.3 674.8h448.4v-46H427.3zM255.3 478.4c-59 0-107-48-107-107s48-107 107-107 107 48 107 107-48 107-107 107z m0-168c-33.6 0-61 27.4-61 61s27.4 61 61 61 61-27.4 61-61-27.4-61-61-61zM427.3 394.4h448.4v-46H427.3zM255.3 223.2c-59 0-107-48-107-107s48-107 107-107 107 48 107 107-48 107-107 107z m0-167.9c-33.6 0-61 27.4-61 61s27.4 61 61 61 61-27.4 61-61-27.4-61-61-61zM427.3 139.2h448.4v-46H427.3z"  horiz-adv-x="1024" />

    
    <glyph glyph-name="bianji" unicode="&#58892;" d="M448.352 133.3376a26.5664 26.5664 0 0 0-10.5664-10.8224l-89.152-49.472c-12.192-6.7648-26.9888-2.3424-33.0496 9.8752a25.0048 25.0048 0 0 0-2.5792 10.688l-1.728 101.952c-0.0896 5.248 1.408 10.2912 4.0832 14.56l0.4736 0.8512 268.8 465.5744a25.6 25.6 0 0 0 34.9696 9.3696l88.6848-51.2a25.6 25.6 0 0 0 9.3696-34.9696l-268.8-465.5744a26.0544 26.0544 0 0 0-0.5056-0.832z m240.3648 653.088l72.0576-41.6a35.2 35.2 0 0 0 12.8832-48.0832l-12.8-22.1696a35.2 35.2 0 0 0-48.0832-12.8896l-72.0576 41.6a35.2 35.2 0 0 0-12.8832 48.0896l12.8 22.1696a35.2 35.2 0 0 0 48.0832 12.8832zM160 32h691.2a32 32 0 1 0 0-64H160a32 32 0 1 0 0 64z"  horiz-adv-x="1024" />

    
    <glyph glyph-name="youjian" unicode="&#58938;" d="M943.61842742 672.38307454H285.90581649c-4.06963056 0-8.55526778-0.75966468-13.4870578-2.25487685l342.33130503-274.54030086 342.33130431 274.54030086c-4.93178931 1.49521216-9.41742653 2.25487685-13.48705707 2.25487685h0.02411646z m41.08819716-535.57545712V586.78818987L640.43395531 310.61400771c-7.25901555-6.02908233-15.83839979-9.02553632-25.68389159-9.02553632-9.83946286 0-18.41884711 2.99645401-25.68389159 9.02553632L244.78144425 586.78818987V136.80761742000004c0-11.37687903 4.03345623-21.05958523 12.04610678-29.15664305 8.0789703-8.0186795 17.72550289-12.05816537 29.07826546-12.05816537h657.71261093c11.34673362 0 21.0414977 4.03948514 29.06017719 12.05816537 8.0608835 8.09705783 12.07625218 17.77976403 12.07625219 29.15664305h-0.04823222zM285.88170002 754.78857422h657.71261094c34.01608369 0 63.1064063-12.07022324 87.19861984-36.20464081C1054.87308648 694.437458 1066.9071354 665.30493141 1066.9071354 631.19238258v-494.38476516c0-34.10049096-12.0340489-63.24507543-36.1142046-87.39155084-24.09221356-24.13441756-53.18253687-36.20464081-87.19861984-36.2046408H285.88170002c-34.04020014 0-63.12449382 12.07022324-87.19862056 36.2046408C174.59086589 73.56254200000001 162.54475911 102.70712647000005 162.54475911 136.80761742000004v494.38476516c0 34.11254883 12.04610678 63.24507543 36.13832034 87.39155084C222.76323513 742.71835098 251.84149987 754.78857422 285.88170002 754.78857422z"  horiz-adv-x="1248" />

    
    <glyph glyph-name="shejiaodingding" unicode="&#59000;" d="M824.5 484.9c-1.4-5.8-4.8-14.4-9.6-24.7h0.1l-0.6-1c-27.9-59.8-100.7-177-100.7-177s-0.1 0.3-0.4 0.7L692 245.8h102.6L598.8-15l44.5 177.5h-80.7l28 117.4c-22.7-5.5-49.5-13-81.3-23.2 0 0-43-25.2-123.8 48.5 0 0-54.5 48.1-22.9 60.1 13.4 5.1 65.2 11.6 106 17.1 55.1 7.5 89 11.4 89 11.4s-169.8-2.5-210.1 3.8c-40.3 6.3-91.4 73.7-102.3 132.9 0 0-16.8 32.5 36.2 17.1 53-15.4 272.6-59.9 272.6-59.9s-285.6 87.7-304.6 109.1c-19 21.4-55.9 116.8-51.1 175.4 0 0 2.1 14.6 17 10.7 0 0 211.1-96.6 355.5-149.5 144.4-53.1 269.9-80 253.7-148.5z m0 0"  horiz-adv-x="1024" />

    
    <glyph glyph-name="zidianguanli" unicode="&#58916;" d="M371.2 409.6s6.4-6.4 0 0c6.4-6.4 6.4-6.4 0 0zM652.8 518.4s0 6.4 0 0c0 6.4 0 6.4 0 0 0 6.4 0 6.4 0 0zM928-70.4c-32 0-57.6 25.6-57.6 57.6v57.6c6.4 0 19.2 6.4 38.4 19.2 19.2 19.2 19.2 32 19.2 38.4V819.2c0 25.6-12.8 44.8-25.6 51.2-6.4 12.8-25.6 25.6-51.2 25.6h-672C115.2 896 64 844.8 64 780.8v-787.2c0-64 51.2-115.2 115.2-115.2H928c19.2 0 32 12.8 32 32s-12.8 19.2-32 19.2z m-734.4 16.8c-30.4 0-55.2 13.6-55.2 44v5.6c0 46.4 18.4 46.4 30.4 46.4H792v-52c0-17.6 6.4-26.4 12-44H193.6z m660 184.8l-12-12h-672c-12 0-24.8 0-30.4-6.4V766.4c0 30.4 24.8 55.2 55.2 55.2h641.6c6.4 0 18.4-12 18.4-18.4l-0.8-672zM498.4 553.6c-48 0-86.4-38.4-86.4-86.4s38.4-86.4 86.4-86.4c47.2 0.8 86.4 39.2 87.2 86.4-0.8 48-39.2 86.4-87.2 86.4z m-0.8-116c-16.8 0-29.6 12.8-30.4 29.6v0.8c0 16.8 13.6 30.4 30.4 30.4 16.8 0 30.4-13.6 30.4-29.6 0-17.6-13.6-31.2-30.4-31.2zM682.4 480l44 53.6-4.8 12-4.8 12c-4 8.8-7.2 17.6-11.2 23.2-5.6 12-12.8 23.2-22.4 32.8l-8.8 8.8-68-9.6c-10.4-0.8-20 4.8-24 14.4L560 689.6l-12.8 1.6c-33.6 7.2-68 7.2-101.6 0l-12-1.6-24-64c-4-8-12.8-13.6-21.6-13.6h-1.6l-64 12-8.8-8.8c-18.4-20.8-32-45.6-41.6-72l-4.8-11.2 44-52.8c5.6-7.2 5.6-16.8 0-24l-46.4-51.2 4.8-11.2c4-14.4 10.4-28.8 18.4-41.6 5.6-11.2 12.8-21.6 21.6-31.2l8.8-8.8 69.6 11.2c8.8 0.8 17.6-4 21.6-12.8l22.4-64 12.8-2.4c34.4-7.2 69.6-7.2 103.2 0l11.2 2.4 24 65.6c3.2 8.8 12 13.6 21.6 12.8l68-11.2 8.8 8.8c17.6 20.8 31.2 44.8 40 70.4l4.8 12-44 50.4c-5.6 7.2-5.6 18.4 0 25.6z m-44-108.8l-36.8 5.6c-27.2 4-53.6-11.2-63.2-37.6l-13.6-36.8c-17.6-2.4-35.2-2.4-52 0l-12 35.2c-9.6 25.6-35.2 42.4-63.2 39.2l-40.8-6.4c-4 4-6.4 8.8-8.8 13.6-4 6.4-7.2 12.8-9.6 19.2l25.6 29.6c16.8 21.6 16.8 52 0 72.8L338.4 536c5.6 11.2 12 22.4 19.2 32l36.8-5.6c28-4.8 54.4 11.2 64.8 37.6l13.6 35.2c16.8 2.4 33.6 2.4 50.4 0l12-33.6c9.6-26.4 35.2-42.4 63.2-39.2l39.2 4.8c3.2-4.8 6.4-9.6 9.6-15.2 4-5.6 6.4-11.2 8.8-16l0.8-1.6-24.8-29.6c-16.8-21.6-16-52 1.6-72.8l24-28c-5.6-12-12-22.4-19.2-32.8z"  horiz-adv-x="1024" />

    
    <glyph glyph-name="tubiao" unicode="&#59199;" d="M128 0h816c8.837 0 16-7.163 16-16v-32c0-8.837-7.163-16-16-16H80c-8.837 0-16 7.163-16 16V816c0 8.837 7.163 16 16 16h32c8.837 0 16-7.163 16-16v-816z m96 325h48c8.837 0 16-7.163 16-16v-220c0-8.837-7.163-16-16-16h-48c-8.837 0-16 7.163-16 16V309c0 8.837 7.163 16 16 16z m360 112h48c8.837 0 16-7.163 16-16v-332c0-8.837-7.163-16-16-16h-48c-8.837 0-16 7.163-16 16V421c0 8.837 7.163 16 16 16zM404 648h48c8.837 0 16-7.163 16-16v-543c0-8.837-7.163-16-16-16h-48c-8.837 0-16 7.163-16 16V632c0 8.837 7.163 16 16 16z m360 99h48c8.837 0 16-7.163 16-16v-642c0-8.837-7.163-16-16-16h-48c-8.837 0-16 7.163-16 16V731c0 8.837 7.163 16 16 16z"  horiz-adv-x="1024" />

    
    <glyph glyph-name="dingding" unicode="&#59024;" d="M512.003 817C272.855 817 79 623.145 79 383.997 79 144.855 272.855-49 512.003-49 751.145-49 945 144.855 945 383.997 945 623.145 751.145 817 512.003 817z m200.075-375.014c-0.867-3.764-3.117-9.347-6.234-16.012h0.087l-0.347-0.648c-18.183-38.86-65.631-115.108-65.631-115.108l-0.215 0.52-13.856-24.147h66.8L565.063 117l29.002 115.368h-52.598l18.27 76.29c-14.76-3.55-32.253-8.436-52.945-15.1 0 0-27.967-16.36-80.607 31.5 0 0-35.501 31.29-14.891 39.078 8.744 3.33 42.466 7.573 69.004 11.122 35.93 4.845 57.965 7.441 57.965 7.441s-110.607-1.643-136.841 2.468c-26.237 4.11-59.525 47.905-66.626 86.377 0 0-10.953 21.117 23.595 11.122 34.547-10 177.535-38.95 177.535-38.95s-185.933 56.992-198.36 70.929c-12.381 13.846-36.406 75.902-33.289 113.981 0 0 1.343 9.521 11.127 6.926 0 0 137.49-62.75 231.475-97.152 94.028-34.403 175.76-51.885 165.2-96.414z"  horiz-adv-x="1024" />

    
    <glyph glyph-name="duanxin" unicode="&#58883;" d="M553.710009 145.066995h402.091992a45.374999 45.374999 0 0 1 45.441999 45.350999V759.625983a45.510999 45.510999 0 0 1-45.441999 45.351999H136.465017a45.374999 45.374999 0 0 1-45.442999-45.351999v-569.207989a45.510999 45.510999 0 0 1 45.442999-45.350999h159.356997v-136.533998l257.888995 136.533998z m22.301-91.022999L284.400014-106.837c-43.963999-24.258-79.598998-3.209-79.598998 47.012999V54.043996h-68.129999A136.692997 136.692997 0 0 0 0.00002 190.713994V759.329983A136.601997 136.601997 0 0 0 136.670017 895.99998h818.926984a136.692997 136.692997 0 0 0 136.669998-136.669997v-568.615989a136.601997 136.601997 0 0 0-136.669998-136.669998H576.010009zM295.822014 395.37799a68.266999 68.266999 0 1 0 0 136.532997 68.266999 68.266999 0 0 0 0-136.532997z m250.310995 0a68.266999 68.266999 0 1 0 0 136.532997 68.266999 68.266999 0 0 0 0-136.532997z m250.310995 0a68.266999 68.266999 0 1 0 0 136.532997 68.266999 68.266999 0 0 0 0-136.532997z"  horiz-adv-x="1092" />

    
    <glyph glyph-name="directmailyoujiantuisong" unicode="&#59156;" d="M543.232 138.24l3.072 45.568H232.96c-56.32 0-102.4 46.08-102.4 102.4 0 36.352 18.944 69.12 51.2 88.064 31.232 17.92 33.28 21.504 20.48 53.76-2.048 5.632-3.072 11.776-3.072 17.408 0 31.232 25.6 56.832 56.832 56.832 0 0 14.848 1.024 30.72-5.12 26.112-10.24 29.184-0.512 41.472 26.624 26.112 56.32 82.432 92.672 143.872 92.672 81.92 0 149.504-61.952 157.184-143.872 2.56-32.256 2.56-32.256 36.864-40.448 25.6-5.12 49.152-17.92 67.584-36.864l48.64 11.776c-25.6 36.352-64 61.44-107.52 69.632-9.728 103.424-96.256 185.344-202.752 185.344-82.432 0-152.576-48.64-185.344-118.784-9.728 3.584-20.48 5.12-30.72 5.12-56.32 0-102.4-45.568-102.4-102.4 0-11.264 2.048-22.016 5.632-31.744-44.032-25.6-73.728-72.704-73.728-126.976 0-81.408 66.048-147.968 147.968-147.968l309.76-1.024zM441.344 303.616l100.352-96.768L926.72 400.896 580.608 184.32l-3.072-111.616 51.712 51.712 54.784-54.784L981.504 430.08 441.344 303.616z"  horiz-adv-x="1024" />

    
    <glyph glyph-name="shebeisheshi" unicode="&#58908;" d="M811 48H695V191h85c12.7 0 23 10.3 23 23V743c0 12.7-10.3 23-23 23H564c-12.7 0-23-10.3-23-23v-529c0-12.7 10.3-23 23-23h85v-143H375V191h85c12.7 0 23 10.3 23 23V743c0 12.7-10.3 23-23 23H244c-12.7 0-23-10.3-23-23v-529c0-12.7 10.3-23 23-23h85v-143H213c-12.7 0-23-10.3-23-23s10.3-23 23-23h598c12.7 0 23 10.3 23 23s-10.3 23-23 23zM587 720h170v-483H587V720z m-320 0h170v-483H267V720zM672 321m-32 0a32 32 0 1 1 64 0 32 32 0 1 1-64 0ZM352 321m-32 0a32 32 0 1 1 64 0 32 32 0 1 1-64 0Z"  horiz-adv-x="1024" />

    
    <glyph glyph-name="tongzhi" unicode="&#58886;" d="M590.336 690.688V76.8l-169.472 159.744-17.92 16.896h-204.8c-16.896 0-30.72 13.824-30.72 30.72v199.68c0 16.896 13.824 30.72 30.72 30.72h205.312l17.92 16.384 168.96 159.744m10.24 75.264c-10.752 0-22.016-3.584-31.744-11.264L378.88 576.512H197.632c-50.688 0-92.16-41.472-92.16-92.16v-199.68c0-50.688 41.472-92.16 92.16-92.16H378.88l189.952-178.688c9.728-7.68 20.992-11.264 31.744-11.264 26.624 0 51.2 20.992 51.2 51.2V714.752c0 30.72-24.576 51.2-51.2 51.2zM897.536 414.72h-195.072v-61.44h195.072V414.72zM745.984 260.608l-43.52-43.52 118.784-119.296 43.52 43.52-118.784 119.296zM821.248 670.208l-118.784-119.296 43.52-43.52 118.784 119.296-43.52 43.52z"  horiz-adv-x="1024" />

    
    <glyph glyph-name="rizhi" unicode="&#58979;" d="M897.28 725.333333h-750.933333c-28.16 0-51.2-23.04-51.2-51.2v-665.6c0-28.16 23.04-51.2 51.2-51.2h750.933333c28.16 0 51.2 23.04 51.2 51.2V674.133333c0 28.16-22.613333 51.2-51.2 51.2z m-17.066667-699.733333h-716.8V657.066667h716.8v-631.466667zM744.96 196.266667H333.226667c-18.346667 0-32.853333 14.933333-32.853334 32.853333v2.133333c0 18.346667 14.933333 32.853333 32.853334 32.853334h411.733333c18.346667 0 32.853333-14.933333 32.853333-32.853334v-2.133333c0-17.92-14.506667-32.853333-32.853333-32.853333zM743.68 349.866667h-221.866667c-18.773333 0-34.133333 15.36-34.133333 34.133333s15.36 34.133333 34.133333 34.133333h221.866667c18.773333 0 34.133333-15.36 34.133333-34.133333s-14.933333-34.133333-34.133333-34.133333zM718.08 588.8c-18.773333 0-34.133333 15.36-34.133333 34.133333V776.533333c0 18.773333 15.36 34.133333 34.133333 34.133334s34.133333-15.36 34.133333-34.133334v-153.6c0-18.773333-14.933333-34.133333-34.133333-34.133333zM325.546667 588.8c-18.773333 0-34.133333 15.36-34.133334 34.133333V776.533333c0 18.773333 15.36 34.133333 34.133334 34.133334s34.133333-15.36 34.133333-34.133334v-153.6c0-18.773333-14.933333-34.133333-34.133333-34.133333z"  horiz-adv-x="1024" />

    
    <glyph glyph-name="chufaqipeizhi-hui" unicode="&#59017;" d="M434.4 537.6m-24.4 0a24.4 24.4 0 1 1 48.8 0 24.4 24.4 0 1 1-48.8 0ZM434.4 409.6m-24.4 0a24.4 24.4 0 1 1 48.8 0 24.4 24.4 0 1 1-48.8 0ZM288 409.6m-24.4 0a24.4 24.4 0 1 1 48.8 0 24.4 24.4 0 1 1-48.8 0ZM288 488.8m-24.4 0a24.4 24.4 0 1 1 48.8 0 24.4 24.4 0 1 1-48.8 0ZM866 163.6H152.4c-14.8 0-26.8 12-26.8 26.8V697.2c0 14.8 12 26.8 26.8 26.8h713.6c14.8 0 26.8-12 26.8-26.8v-116.4a26.8 26.8 0 0 0-53.6 0V670h-660v-452.4h659.6v224.4a26.8 26.8 0 0 0 53.6 0v-251.2c0.4-14.8-11.6-27.2-26.4-27.2zM661.2 32H356.8a26.8 26.8 0 0 0 0 53.6h304.4c14.8 0 26.8-12 26.8-26.8 0.4-14.8-11.6-26.8-26.8-26.8z m0 0M566.8 40.8h-111.6c-7.6 0-14.4 3.2-19.2 8.8-4.8 5.6-6.8 13.2-5.6 20.4l20.8 123.6c2 12 12.8 21.2 24.8 21.2h69.6c12.4 0 22.8-8.8 24.8-21.2l20.8-123.6c1.2-7.2-0.8-14.8-5.6-20.4-4-5.6-11.2-8.8-18.8-8.8z m-84.8 46.8h54.4l-13.2 76.8h-28l-13.2-76.8z m380 209.2H156.4c-14.8 0-26.4 12-26.4 26.4 0 14.8 12 26.4 26.4 26.4h705.6c14.8 0 26.4-12 26.4-26.4 0-14.8-12-26.4-26.4-26.4z m-344-65.6h-17.6c-14.8 0-26.4 12-26.4 26.4 0 14.8 12 26.4 26.4 26.4h17.6c14.8 0 26.4-12 26.4-26.4 0-14.4-11.6-26.4-26.4-26.4z m0 0M410 537.6h48.8v-128h-48.8zM592.8 616.8m-24.4 0a24.4 24.4 0 1 1 48.8 0 24.4 24.4 0 1 1-48.8 0ZM592.8 409.6m-24.4 0a24.4 24.4 0 1 1 48.8 0 24.4 24.4 0 1 1-48.8 0ZM720.8 537.6m-24.4 0a24.4 24.4 0 1 1 48.8 0 24.4 24.4 0 1 1-48.8 0ZM720.8 409.6m-24.4 0a24.4 24.4 0 1 1 48.8 0 24.4 24.4 0 1 1-48.8 0ZM696.4 537.6h48.8v-128h-48.8zM263.6 488.8h48.8v-79.2H263.6zM568.4 616.8h48.8v-207.2h-48.8z"  horiz-adv-x="1024" />

    
    <glyph glyph-name="vcsshijuejisuanfuwu" unicode="&#59225;" d="M936.746667 572.586667a83.626667 83.626667 0 0 1 12.8 42.666666c0 81.706667-132.266667 150.613333-313.813334 172.586667 2.56-9.237333 4.010667-18.773333 4.266667-28.373333a128 128 0 0 0-7.893333-42.666667 661.333333 661.333333 0 0 0 162.346666-39.893333c64-26.24 83.2-53.333333 83.2-60.16 0-6.826667-19.626667-34.133333-83.2-60.373334a652.16 652.16 0 0 0-168.96-40.533333 51.413333 51.413333 0 0 0-45.013333 17.066667 90.666667 90.666667 0 1 1 6.613333-112 51.626667 51.626667 0 0 0 37.12 21.333333 781.226667 781.226667 0 0 1 152.96 30.933333 5.12 5.12 0 0 0 5.973334-7.68l-264.533334-415.573333a7.893333 7.893333 0 0 0-13.226666 0L241.92 464.64a5.12 5.12 0 0 0 5.76 7.68c39.744-12.266667 80.405333-21.333333 121.6-27.093333a156.586667 156.586667 0 0 0-2.56 26.453333c0 15.808 2.602667 31.530667 7.68 46.506667A631.893333 631.893333 0 0 0 230.4 554.666667c-64 26.24-83.2 53.333333-83.2 60.373333 0 7.04 19.626667 33.92 83.2 60.16a690.133333 690.133333 0 0 0 193.066667 42.666667 50.56 50.56 0 0 0 39.253333-12.8 72.746667 72.746667 0 0 1 68.266667-16.853334 71.68 71.68 0 0 1 51.626666 52.48A72.746667 72.746667 0 0 1 512 832a71.253333 71.253333 0 0 1-53.76-24.32 53.333333 53.333333 0 0 0-34.56-15.786667C224.426667 775.253333 74.666667 702.506667 74.666667 615.68a82.56 82.56 0 0 1 13.226666-44.16l393.6-618.666667a36.266667 36.266667 0 0 1 61.013334 0l392.533333 616.746667v1.066667l1.706667 1.92z"  horiz-adv-x="1024" />

    
    <glyph glyph-name="bar_icon_shebei" unicode="&#58890;" d="M901.12 387.413H119.467C54.613 387.413 0 442.027 0 506.88V732.16C0 797.013 54.613 851.627 119.467 851.627H901.12c64.853 0 119.467-54.614 119.467-119.467v-221.867c0-68.266-51.2-122.88-119.467-122.88zM119.467 773.12c-20.48 0-40.96-17.067-40.96-40.96v-221.867c0-20.48 17.066-40.96 40.96-40.96H901.12c20.48 0 40.96 17.067 40.96 40.96V732.16c0 20.48-17.067 40.96-40.96 40.96H119.467z m0 0M675.84 633.173c0-20.48 10.24-37.546 27.307-47.786 17.066-10.24 37.546-10.24 54.613 0s27.307 27.306 27.307 47.786-10.24 37.547-27.307 47.787c-17.067 10.24-37.547 10.24-54.613 0-17.067-13.653-27.307-30.72-27.307-47.787zM983.04 179.20000000000005H78.507c-20.48 0-40.96 17.067-40.96 40.96 0 20.48 17.066 40.96 40.96 40.96h901.12c20.48 0 40.96-17.067 40.96-40.96 3.413-23.893-17.067-40.96-37.547-40.96z m0-228.693H78.507c-20.48 0-40.96 17.066-40.96 40.96 0 20.48 17.066 40.96 40.96 40.96h901.12c20.48 0 40.96-17.067 40.96-40.96 3.413-23.894-17.067-40.96-37.547-40.96z m0 0"  horiz-adv-x="1024" />

    
    <glyph glyph-name="user-before" unicode="&#58903;" d="M512.7168 357.2224c-150.5792 0-273.09056 120.84736-273.09056 269.3888C239.62624 775.14752 362.13248 896 512.71168 896s273.09056-120.85248 273.09056-269.3888c0-148.54144-122.51136-269.3888-273.09056-269.3888z m0 500.65408c-129.55648 0-234.94656-103.7312-234.94656-231.26528s105.4208-231.2704 234.94144-231.2704c129.55648 0 234.96704 103.7312 234.96704 231.2704s-105.41056 231.2704-234.96704 231.2704z m94.2592-985.87136H418.47808c-189.44 0-339.08224 0-339.08224 111.8208v18.54464c0 184.32 152.1152 334.25408 339.08224 334.25408h188.49792c186.96704 0 339.07712-149.9392 339.07712-334.25408v-18.54976C946.0224-128 788.8896-128 606.976-128z m-188.49792 426.47552c-165.94432 0-300.9536-132.84864-300.9536-296.13056v-18.55488c0-70.12352 114.34496-73.6768 300.9536-73.6768h188.49792c154.76224 0 300.93312 0 300.9536 73.6768v18.55488c0 163.28192-135.0144 296.13056-300.9536 296.13056H418.47808z"  horiz-adv-x="1024" />

    
    <glyph glyph-name="kemuweihutubiao" unicode="&#58891;" d="M58.40592639 804.6975370600001v-833.99671574c0-32.283744 26.90312-64.567488 64.56748693-64.567488H219.82464532V874.64564906H122.97341332C90.68966932 874.64564906 58.40592639 847.74252906 58.40592639 804.6975370600001c0 5.380624 0 5.380624 0 0zM822.45453012 874.64564906v-355.12118294l-107.61247893 86.089984-112.993104-86.089984V874.64564906H295.15338026v-968.51231574h618.77175786c37.664368 0 64.567488 26.90312 69.94811094 64.567488V804.6975370600001C983.87324906 842.36190506 956.97012906 874.64564906 919.30576212 874.64564906h-96.851232zM381.24336426 998.39999999"  horiz-adv-x="1024" />

    
    <glyph glyph-name="accounting-subjects" unicode="&#58999;" d="M760.55134815 798.2522469099999v-497.1026963H182.6694637c-31.06891852 0-60.06657581-8.28504494-84.92171061-22.78387358V714.36616691c0 46.60337778 37.28270222 83.88608 83.88608 83.88608H760.55134815m82.85044938 82.85044939H181.63383309C89.46270815 881.1026963 14.8973037 806.53729185 14.8973037 714.36616691v-660.73233382c0-92.17112494 74.56540445-166.73652939 166.73652939-166.73652939H1009.1026963V798.2522469099999h-82.85044939v-828.50449382H182.6694637c-46.60337778 0-84.92171061 38.31833283-84.92171061 84.92171061v78.70792691c0 46.60337778 38.31833283 84.92171061 84.92171061 84.92171063H843.40179753V881.1026963z m0-745.65404445H180.59820247v-82.85044938h662.80359506v82.85044938zM600.02860247 635.65824v-57.99531457H483.00234272V518.63198025h117.02625975v-59.03094519H483.00234272V342.57477530999995h-59.03094519V459.60103506H306.94513778V518.63198025h117.02625975v59.03094518H306.94513778v57.99531457h75.60103505l-75.60103505 75.60103506 41.42522469 42.46085531 104.59869235-105.63432296 105.63432296 105.63432296 41.42522469-42.46085531-75.60103506-75.60103506z"  horiz-adv-x="1024" />

    
    <glyph glyph-name="RectangleCopy" unicode="&#59101;" d="M449.40777426 71.47877705999997a31.42179956 31.42179956 0 0 1 31.42179959 31.42179959v138.06738995h183.94321854a31.42179956 31.42179956 0 0 1 0 62.84359916h-183.94321854v88.42094537h183.94321854a31.42179956 31.42179956 0 1 1 0 62.84360061h-183.94321854v35.25525966l152.7099483 144.1632182a31.29611285 31.29611285 0 0 1 1.25687299 44.36758219 31.29611285 31.29611285 0 0 1-44.30473809 1.3197156l-144.54028127-136.37061276-144.54027978 136.37061276a31.35895695 31.35895695 0 1 1-43.11070921-45.68729779l159.62274382-150.63610949v-28.78236837H224.93043511a31.42179956 31.42179956 0 1 1 0-62.84360061h193.11838221v-88.42094537H224.80474694a31.35895695 31.35895695 0 1 1 0-62.84359916h193.11838367v-138.06738995a31.42179956 31.42179956 0 0 1 31.42179957-31.42179959M855.56596238 886.7488005H164.91479651A155.91497193 155.91497193 0 0 1 9.2511995 730.95951679v-690.58832177a155.85212782 155.85212782 0 0 1 155.72644112-155.66359849h439.59098237a29.72502237 29.72502237 0 0 1 0 59.38720212H164.97764062a96.33923899 96.33923899 0 0 0-96.27639637 96.27639637V731.02235938c0 53.10284161 43.17355328 96.33923899 96.27639637 96.33923901h690.58832176c53.16568571 0 96.33923899-43.23639738 96.33923897-96.4020816v-434.87771386a29.72502237 29.72502237 0 0 1 59.45004474 0v434.87771386a155.977816 155.977816 0 0 1-155.85212781 155.85212781M715.3618895 77.8259802a95.20805418 95.20805418 0 1 0 95.14521158-95.1452101 95.20805418 95.20805418 0 0 0-95.14521158 95.1452101z m229.19061065-82.51364648a156.4805643 156.4805643 0 0 1 23.88056755 82.51364648 158.1773415 158.1773415 0 0 1-157.92596662 157.9888107 158.1773415 158.1773415 0 0 1-157.98881071-157.9888107 158.1773415 158.1773415 0 0 1 157.98881071-157.98881073 156.4805643 156.4805643 0 0 1 91.1232192 29.41080488l54.1083397-59.32435804a31.17042615 31.17042615 0 0 1 44.36758219-2.01099618 31.35895695 31.35895695 0 0 1 2.01099472 44.36758217l-57.56473674 63.03213142z"  horiz-adv-x="1024" />

    
    <glyph glyph-name="chengbenshujuguanli" unicode="&#59079;" d="M938.666667 241.777778c-22.755556 11.377778-51.2 0-56.888889-22.755556-68.266667-164.977778-238.933333-267.377778-409.6-244.622222-199.111111 28.444444-341.333333 170.666667-369.777778 369.777778-22.755556 164.977778 79.644444 335.644444 244.622222 409.6 22.755556 11.377778 34.133333 34.133333 22.755556 62.577778s-34.133333 28.444444-56.888889 17.066666C108.088889 748.088889-17.066667 537.6 11.377778 332.79999999999995c34.133333-244.622222 210.488889-415.288889 449.422222-449.422222 17.066667 0 34.133333-5.688889 51.2-5.688889 187.733333 0 369.777778 119.466667 449.422222 301.511111 11.377778 28.444444 0 56.888889-22.755555 62.577778zM864.711111 731.022222C773.688889 827.733333 648.533333 884.622222 512 884.622222c-22.755556 0-45.511111-22.755556-45.511111-45.511111v-455.111111c0-22.755556 22.755556-45.511111 45.511111-45.511111h455.111111c22.755556 0 45.511111 22.755556 45.511111 45.511111 0 136.533333-56.888889 261.688889-147.911111 347.022222zM557.511111 429.511111V793.6c91.022222-11.377778 176.355556-56.888889 244.622222-125.155556 68.266667-62.577778 108.088889-147.911111 119.466667-238.933333H557.511111z"  horiz-adv-x="1024" />

    
    <glyph glyph-name="jibenshuju" unicode="&#59165;" d="M773.6 700c0-10.4-8-18.4-18.4-18.4-10.4 0-18.4 8-18.4 18.4 0 9.6 8 18.4 18.4 18.4 10.4-0.8 18.4-8.8 18.4-18.4zM904 491.2c0-10.4-8-18.4-18.4-18.4-10.4 0-18.4 8-18.4 18.4 0 10.4 8 18.4 18.4 18.4 10.4-0.8 18.4-8.8 18.4-18.4zM904 643.2c0-10.4-8-18.4-18.4-18.4-10.4 0-18.4 8-18.4 18.4 0 10.4 8 18.4 18.4 18.4 10.4-0.8 18.4-8.8 18.4-18.4zM728 539.2L574.4 385.6c-4-9.6-15.2-14.4-24.8-11.2-5.6 1.6-10.4 4.8-13.6 10.4L428 492 284.8 348.8c-4.8-5.6-12.8-8-20-5.6-7.2 1.6-12.8 7.2-14.4 14.4-1.6 7.2 0.8 15.2 5.6 20L406.4 528c4 4 9.6 6.4 15.2 5.6 8 5.6 18.4 4 25.6-2.4l108-108 154.4 154.4h-41.6c-11.2 0-20 8.8-20 20s8.8 20 20 20h80.8c10.4 0 18.4-7.2 20-17.6 3.2-6.4 3.2-13.6 0-19.2v-64.8c0-7.2-4-13.6-10.4-17.6-6.4-4-14.4-4-20 0-6.4 4-10.4 10.4-10.4 17.6v23.2zM687.2 90.4h60.8c7.2 0 13.6-4 17.6-10.4 4-6.4 4-13.6 0-20s-10.4-10.4-17.6-10.4h-608c-5.6 0-10.4 2.4-14.4 5.6-4 4-5.6 8.8-5.6 14.4V596.8c0 11.2 8.8 20 20 20S160 608 160 596.8v-506.4h121.6V232.8c0 11.2 8.8 20 20 20s20-8.8 20-20v-141.6h80.8V313.6c0 11.2 8.8 20 20 20s20-8.8 20-20v-223.2h80.8V232.8c0 11.2 8.8 20 20 20s20-8.8 20-20v-141.6h80.8V354.4c0 11.2 8.8 20 20 20s20-8.8 20-20v-264z"  horiz-adv-x="1024" />

    
    <glyph glyph-name="B-shengshiqu" unicode="&#59181;" d="M503.5 460.3c0 0.1 0.1 0.2 0.2 0.2-0.2 0.9-0.3 1.7-0.4 2.2 0-0.8 0.1-1.6 0.2-2.4z m172-187.8h-0.1 0.1z m4.4-0.6c-1.1 0.2-3.5-0.1-4.4 0.6-0.6-2 0.3-2.8 4.4-0.6zM512.4 832.1C265 832.1 64.6 631.6 64.6 384.2c0-247.3 200.5-447.8 447.8-447.8s447.8 200.5 447.8 447.8c0 247.4-200.5 447.9-447.8 447.9z m286-175c-15.4-0.5-26.2-0.5-38.6-9-5-3.5-8.4-8-14.7-9.8-5.7-1.6-11.8-0.2-17.5-2.1-20.3-6.9-17.1-50.5-43.9-43.9-12.6 3.1-21.5 18-27.8 27.7-5.6 8.5-15.7 15.6-8.9 26.3-3.1-0.8-6.5 0.1-9.6-0.5 4.3 9.4 18.7 8.6 21.1 13.4 6 12.1-16.4 13.3-22.8 15 7.6 8.2 11.5-2.7 19.1-0.9 7.2 1.8-3.8 11.3-8.2 12.4-1.6 0.4-27.1-7.1-12.3 6.2-18.2 11.6-36.5 23.3-54.7 34.9-3.1-12.9 24.3-20.3 33.2-24.9-1.4-5.3-9.7-13.1-16.1-10.8-6 2.1-3.6 12.1-12.6 11.1-6.5-15 13.7-10.6 15.5-19.8 2.1-10.5-7.6-6-11.4-5.9-0.9 0.1-7.9 7.3-8.2 1.8-0.5-6.5 11.1-4 11.9-10.5-13.5-0.5-20.4 4.3-31.4 11.6-12.8 8.5-19.4 7.7-35.1 7.7 4.7 1.9 11.2 3.4 15.2 6.5 2.2 1.7 10.8 10.1 11.4 11.9 2.4 8-0.1 7.4-7.8 12.7-6.9 4.7-15.2 13.1-23.5 14.8-30.1 6-9.3-27.2-32.1-31.7h1.2-1.3 0.2c-5.3 0.2-15.2 1.5-18.6-1.3-2.4-2-2.6-9.8-5.3-12.7-4.8-5.1-11.9-6.1-17.6-9.8-5.6-3.6-17.8-12.8-21.1-19.1-12.1-23 27.2-30.2 42-36.9 6.7-3.1 26.3-7.2 30-12.3 4.9-6.8-4.2-13.2 6-18 3.3-1.5 10-1.8 12.8 1.3 4.6 5.2-1.9 6.3-3 12.3-2.1 11.5 1.4 6.9 7.1 11.2 11.8 8.7 9.1 9.2 4.9 23-2 6.4-9.4 24.4-2.9 29.2 8.5 6.2 26.6-3.4 33.1-4.2 7.6-0.9 11.9-11.4 16-15.7 2.7-2.8 7.7-8.9 12.4-8.2 7.6 1 4.4 7.7 8.9 10.8 11.8 8.2 15-2.9 19.7-14.1 4.4-10.5 8.6-14.4 16.5-21.1 3.7-3.1 19.8-14.3 18.2-21.2-1-4.6-19.4-11.7-24.3-13.2-18-5.7-51.7 9.3-55.3-19.2 7 2.6 26.8 18.8 32.7 11.1 2.7-3.5-2.2-8.6-1-12 3.4-10.4 11.4-6.8 19.8-5.1-0.6-0.4-1.2-0.7-1.8-0.9 11.5 5.9 10.3 4.7 15.5 14.2 1.7 3.1 4.3 10.7 6.7 12.9 8.3 7.7 9.6 2.4 14.8-3.5 1.4-1.5 14.1-19.9 9.6-19-14.8 3-29.1 2.6-41.4-5.5-7.1-4.7-13.8-11-22.3-14.1-2-0.7-17.1-2.2-15.3 0.4 2.6 3.7 11.5 6.2 15 10.3-9.8 4-17.9-4.9-25.6-10-8.1-3.9-10-11-17-17.3-3-2.7-8.7-3.2-11.7-6.8-2.9-3.5-3.2-9-6-12.3-1.9-2.3-6.8-0.9-8.8-4.4-2.6-4.6 2.4-8.8 1.3-12.1-2-6-13.4-11.1-17.8-15.4l1.7 1.7c-4.4-4.6-10-8-13.4-13.4 1.6-7.5 6.6-25.5 5.2-29.6-4.6-13.6-13.5 7.4-17.1 12.8-12.4 18.6-37.1 6.2-54 4.6-21.6-2-42.8-30.1-29.5-52.8 6.4-10.9 17.2-15.2 29.5-12.6 11 2.3 14.3 17.6 24.7 17.9 19 0.5 0.4-18.6-1.2-25.7-1.5-6.5 2.4-7.1 9.1-8.7 4.9-1.2 12 2.1 16.2-0.7 2.7-1.8 2.6-11.6 6.3-8.5-7.3-6.1-5.6-20.5 1.9-25.6 8.3-5.8 18.1-0.4 26.8-2.6 16.4-4.2 8.6 1.2 23 10 9.8 5.9 11.4-1.1 18-1.1 4.5 0 7.4 6.5 15 4.6 6.2-1.6 8.6-6.3 16-7.4 3-0.5 6.2 1.1 9 0.8 13.6-1.5 24.1-10.2 34.9-18.1 8.9-6.5 14.7-5.2 25.1-8.1 7.6-2.2 21.5-13.1 20.8-22.7-0.1-1.7-6.7-10.4-7.9-14.2 1.9-1.3 15.4 1.7 19.3 1.9-1.3-1.5-10.5-7.9-10.5-4.5 0-1.7 6.5-5.3 8.1-6.5 4.8 15.5 12.6 5.5 22.1 1.7 8-3.3 17.9-3.4 26.5-5.5 7.3-1.7 23.3-6.6 28.7-12.6 6.5-7.2 2-18.8-2.8-25.9-6.3-9.3-15.8-12.9-19.7-23.9-3.1-8.7-0.8-17.5-2.5-27.2-2.4-13-4.3-8.5-12.7-16.4-7.1-6.7-0.1-5.5-9.8-9.8-9.7-4.3-18.2-3-24.9-13.6 0.3 0.7 0.5 1.3 0.7 2-2.8-4-4.2-12.1-5.6-14.7-3.4-6.8-8-11.1-13.4-16.7-2-2.2-20.9-27.9-22-25.8-1.4 2.7-16.2-2.7-17 1.1 0.6-3.2-0.1-2.1 3.5-4-3.4-21.1-12.4-24.3-33.1-24.5 1.8-10.2-7.5-8.1-11.8-13.6-2.5-3.2-3.7-12.2-5.5-16.3-1.1-2.6-9.2-13-9.2-15 0-1.9 2.7-4.7 5.3-7.3-14.6-2.9-29.5-4.9-44.7-6.1 2.8 3.6 3.5 6.7-5.5 7.1 2.4 6.6 8.1 10.3 10.5 16.7 1.1 3 0.2 4.2 1.2 7.2 3.3 10.3 1.9 6.4 0 14.4-4.4 18.7 1.6 23.8 6.7 40.9 5.2 17.6 4.7 40.4 8.1 59.3 1.6 9.1 4.2 27.9 1 36.5-3.5 9.7-19.2 17.3-26.3 23.7-10.1 9.2-15.5 19.2-23 30.6-3.8 5.8-8.2 11.5-11.1 17.8-6.4 13.5 0 5.5 1.1 13.4 1 7.7-0.9 14.5 2.1 22.6 3.4 8.9 11.8 14.5 14.5 23.4 2.5 8 0.6 18-7.6 20.7-4.6 1.5-9.6-2-14.2-1.2-6.4 1-13.7 5.8-18.7 9.6-7 5.4-9.7 14.1-17.1 19.1-6.3 4.2-10.7 1.7-17.4 3.7-7 2.1-11.3 10.7-16.9 13.4-8.5 4-13.2-1.8-22.2-0.6-7.6 1-19.2 9.4-26.3 12.6-14.4 6.5-23.2 13.6-29 28.2-4.9 12.6-12.1 18.4-20.6 28.9-8.6 10.6-11.3 19.6-24.5 22.4-1.6 0.3 3.2-11.1 3.7-12 4.7-8.8 11.8-16.8 17.6-24.9 8.4-12 4.8-14.3-3.7-2.6-9.8 13.3-21.1 26.5-29.6 40.6-3.2 5.3-2.6 8.8-7.9 13.8-5.1 4.9-11.8 7.3-17 11.9-18.5 16.7-21.9 38.9-19.8 62.7 0.7 7.7 3.5 13.9 2.2 21.4-1 6.2-4.7 11.3-9.2 15.8-1.5 2.3-5.1 8.1-5.4 8.5-4.2 7-7.5 13.8-14.2 19.6-3.8 3.3-13.8 11-23.1 17.5 41.9 52.3 96.8 93.8 159.8 119.5 0.5-3.2 1.9-6.3 3.9-9.3 5.2-7.7 10.1-7.1 20.2-9.2-1.1-11.7-14.8-11.8-24.1-10.6-11.1 1.5-22.7 5.2-32.3-4.5 5.3-3.2 19.8-15.6 17.9-2.6 10.6 0.5 20.9 0.8 31.2-0.4 4.2-0.5 18.1-5.2 21.9-3.1 1.6 0.9 3.3 8.7 5 11.1-3 0-6.1 1.5-9.1 1.2 6.9 8.8 13.7 1.9 22.5-2.2-9.6-5.9-3.9-19.9 5.5-8.5 7.7 9.3-1.9 16.2-11.7 21.6 9.9 12.4 16 13.5 25.3-0.5 1.5 8.6 8.5 5.2 15.8 4.5v2.2c-3.2-0.1-6.6 1.8-9.8 1.4 7.4 11.8 2.7 14.5 13.3 18.4 8.4 3.1 32.5 0.2 35.5 8.1-16.8-3.3-37.2-4.1-52.4-11.7-6.5-3.3-14.4-13.7-20.9-6.9-6.7 6.9 4.8 18.1 10.7 21.5h-1.4c26.7 5.7 54.3 8.7 82.6 8.7 18.3 0 36.3-1.4 53.9-3.8-6.1-3.2-1.6-5.4-6-8.6-8.5-6.3-23.6-11.5-33.7-15.4 12.9 0 44-12.1 50 6-4.2 0.6-8.3 1.3-12.4 1.9 7.7 5.1 16.4 9.3 25.5 12.4 81.9-16.2 154.6-57.7 210-116 0.1-0.8-0.3-0.8-0.7-0.8z m72.5-157.2c0.7 1.6 2.5 2.1 3.2 3.4 1.5 2.7 1.2 4.6 3 6.9 2 2.5 4.6 3.1 6.8 5.1 0.9 0.8 1.4 1.5 1.8 2.3 6.6-18.4 11.9-37.5 15.7-57.1-0.1-0.1-0.2-0.3-0.3-0.5-1-0.8-7.2-1.7-8.5-1.7-4.5-0.2-7.9 2.8-11.2 5.7-3.3 2.9-7.2 6.7-9.6 10.5-2.5 4-1 8.1-0.8 12.6 0.1 3.9-1.8 9.4-0.1 12.8z m5.1-205.3c-7.7 6.7-16.8 15.6-22.2 24.3-5.8 9.2-2.2 18.7-1.8 29.3 0.4 8.9-4 21.5-0.2 29.5 1.7 3.6 5.7 4.8 7.3 7.9 3.5 6.3 2.7 10.6 7 16.1 4.6 5.9 10.7 7.3 15.8 11.9 5.3 4.8 5.2 8.6 8.6 14.8 2.5 4.5 8.3 12 13.8 15.9 3-19.6 4.5-39.6 4.5-60 0-35.3-4.7-69.5-13.4-102.1-7.4 1.9-13.5 7.2-19.4 12.4z"  horiz-adv-x="1024" />

    
    <glyph glyph-name="zuzhijigou" unicode="&#58990;" d="M588.25 709.25v-118h-153.5v118h153.5m24 64h-201.5c-22.09 0-40-17.91-40-40v-166c0-22.09 17.91-40 40-40h201.5c22.09 0 40 17.91 40 40v166c0 22.09-17.91 40-40 40zM279.5 176.75v-118h-118v118h118m24 64h-166c-22.09 0-40-17.91-40-40v-166c0-22.09 17.91-40 40-40h166c22.09 0 40 17.91 40 40v166c0 22.09-17.91 40-40 40zM571 176.75v-118H453v118h118m24 64H429c-22.09 0-40-17.91-40-40v-166c0-22.09 17.91-40 40-40h166c22.09 0 40 17.91 40 40v166c0 22.09-17.91 40-40 40zM862.5 176.75v-118h-118v118h118m24 64h-166c-22.09 0-40-17.91-40-40v-166c0-22.09 17.91-40 40-40h166c22.09 0 40 17.91 40 40v166c0 22.09-17.91 40-40 40zM543.5 529.05h-64v-101.3h-228c-34.79 0-63-28.21-63-63v-153h64v132c0 11.05 8.95 20 20 20h207v-152h64v152h208c11.05 0 20-8.95 20-20v-132h64v153c0 34.79-28.21 63-63 63h-229v101.3z"  horiz-adv-x="1024" />

    
    <glyph glyph-name="anniu" unicode="&#59589;" d="M970.105263-57.936842H53.894737v269.473684h916.210526v-269.473684z m-862.315789 53.894737h808.421052v161.68421H107.789474v-161.68421zM970.105263 152.252632H53.894737V664.252632c0 75.452632 53.894737 134.736842 118.568421 134.736842h679.073684C916.210526 798.989474 970.105263 739.705263 970.105263 664.252632v-512z m-862.315789 53.894736h808.421052V664.252632c0 43.115789-26.947368 80.842105-64.673684 80.842105H172.463158c-37.726316 0-64.673684-32.336842-64.673684-80.842105v-458.105264zM646.736842 330.105263h53.894737v269.473684h-53.894737v-269.473684z m161.684211 269.473684v-269.473684h53.894736v269.473684h-53.894736z m-377.263158-53.894736h53.894737v-215.578948h53.894736v215.578948h53.894737v53.894736H431.157895v-53.894736z m-269.473684-215.578948h215.578947v269.473684H161.684211v-269.473684z m53.894736 215.578948h107.789474v-53.894737H215.578947v53.894737z m0-107.789474h107.789474v-53.894737H215.578947v53.894737zM706.021053 599.578947H646.736842v-5.389473l161.684211-264.084211h53.894736v16.168421z"  horiz-adv-x="1024" />

    
    <glyph glyph-name="caidan2" unicode="&#58907;" d="M382.2 730.3H217.4c-47.5 0-86.2-38.7-86.2-86.2v-164.8c0-47.5 38.7-86.2 86.2-86.2h164.8c47.5 0 86.2 38.7 86.2 86.2V644.1c0.1 47.6-38.6 86.2-86.2 86.2z m-9.9-241.1h-145v145h145v-145zM382.2 338.4H217.4c-47.5 0-86.2-38.7-86.2-86.2v-164.8c0-47.5 38.7-86.2 86.2-86.2h164.8c47.5 0 86.2 38.7 86.2 86.2V252.2c0.1 47.5-38.6 86.2-86.2 86.2z m-9.9-241.1h-145v145h145v-145zM871.6 622.7L755.1 739.2c-16.3 16.3-37.9 25.3-61 25.3-23 0-44.7-9-61-25.3L516.6 622.7c-33.6-33.6-33.6-88.3 0-121.9l116.6-116.5c16.3-16.3 37.9-25.3 61-25.3 23 0 44.7 9 61 25.3l116.6 116.6c33.4 33.4 33.4 88.1-0.2 121.8zM694.1 459.2L591.6 561.7l102.5 102.5 102.5-102.5-102.5-102.5zM776.5 338.4H611.7c-47.5 0-86.2-38.7-86.2-86.2v-164.8c0-47.5 38.7-86.2 86.2-86.2h164.8c47.5 0 86.2 38.7 86.2 86.2V252.2c0 47.5-38.7 86.2-86.2 86.2z m-9.9-241.1h-145v145h145v-145z"  horiz-adv-x="1024" />

    
    <glyph glyph-name="wenhao" unicode="&#59007;" d="M510.827 819.958c247.096-0.028 448.767-201.816 448.28-448.542-0.49-247.641-201.839-448.844-448.57-448.241-247.462 0.604-447.696 200.956-448.024 448.289-0.328 246.882 201.23 448.521 448.315 448.494zM916.775 371.635c-0.036 223.591-181.117 405.318-405.726 405.779-223.891 0.458-405.925-181.253-406.159-405.791-0.233-223.613 181.449-405.166 405.673-405.804 223.336-0.636 406.247 182.097 406.212 405.817zM535.795 226.7c-19.143 0-37.775 0-56.939 0 0 11.373-0.608 22.537 0.128 33.613 1.485 22.364 6.658 43.815 18.344 63.301 9.094 15.164 20.675 28.25 33.541 40.276 15.979 14.935 32.148 29.678 47.81 44.94 9.222 8.986 17.419 19.009 21.68 31.483 10.207 29.884 3.682 56.569-16.199 80.337-33.016 39.47-88.236 40.822-122.051 21.067-21.313-12.451-34.092-31.502-41.552-54.414-3.344-10.272-5.654-20.881-8.651-32.155-19.652 2.333-39.767 4.722-60.636 7.199 0.779 5.206 1.336 10.1 2.263 14.924 5.196 27.06 14.589 52.297 32.254 73.943 21.519 26.37 49.555 41.723 82.58 48.062 34.471 6.616 68.92 5.901 102.442-4.987 42.921-13.939 74.68-41.177 89.113-84.564 13.857-41.655 7.049-81.004-20.227-116.155-17.302-22.299-38.82-40.415-59.042-59.832-8.896-8.542-17.896-17.136-25.623-26.696-11.477-14.198-15.858-31.37-17.242-49.325-0.782-10.137-1.313-20.294-1.992-31.014zM475.158 106.26c0 22.494 0 44.772 0 67.411 22.538 0 44.811 0 67.458 0 0-22.426 0-44.709 0-67.411-22.407 0-44.809 0-67.458 0z"  horiz-adv-x="1024" />

    
    <glyph glyph-name="lajitong" unicode="&#58934;" d="M337.984 102.976c-16.064 0-28.992 12.608-28.992 28.096L308.992 440.192c0 15.552 12.992 28.096 28.992 28.096 16.064 0 28.992-12.608 28.992-28.096l0-309.056C366.976 115.584 353.984 102.976 337.984 102.976L337.984 102.976zM512 102.976c-16.064 0-28.992 12.608-28.992 28.096L483.008 440.192c0 15.552 12.992 28.096 28.992 28.096 16.064 0 28.992-12.608 28.992-28.096l0-309.056C540.992 115.584 528.064 102.976 512 102.976L512 102.976zM686.016 102.976c-16.064 0-28.992 12.608-28.992 28.096L657.024 440.192c0 15.552 12.992 28.096 28.992 28.096 16.064 0 28.992-12.608 28.992-28.096l0-309.056C715.072 115.584 702.08 102.976 686.016 102.976L686.016 102.976zM918.08 608.832l0-28.096-58.048 0 0-533.952c0-61.952-52.032-112.384-116.032-112.384L279.936-65.6c-64 0-116.032 50.432-116.032 112.384L163.904 580.736 105.92 580.736 105.92 608.832 76.864 608.832 76.864 636.928c0 61.952 52.032 112.384 116.032 112.384l120.128 0C326.016 797.696 371.072 833.6 424.96 833.6L599.04 833.6c53.888 0 98.944-35.904 111.936-84.288l120.128 0c64 0 116.032-50.432 116.032-112.384l0-28.096L918.08 608.832 918.08 608.832zM279.936-9.408l464.128 0c32 0 57.984 25.216 57.984 56.192L802.048 580.736 221.952 580.736l-4.032-533.952C217.92 15.808 248-9.408 279.936-9.408L279.936-9.408zM599.04 777.408 424.96 777.408c-21.376 0-39.872-11.392-49.92-28.096l273.92 0C638.912 766.016 620.416 777.408 599.04 777.408L599.04 777.408zM831.104 693.12 192.896 693.12c-32 0-57.984-25.216-57.984-56.192l69.12 0 145.024 0 325.888 0 145.024 0 69.12 0C889.088 667.904 863.04 693.12 831.104 693.12L831.104 693.12z"  horiz-adv-x="1024" />

    
    <glyph glyph-name="zhongzhimima" unicode="&#58912;" d="M636.172598 448.069989c37.402156 0 67.701422-33.050836 67.701422-73.844462l0-172.261084c0-40.761631-30.299266-73.812467-67.701422-73.812467l-248.217216 0c-37.370161 0-67.701422 33.050836-67.701422 73.812467l0 172.261084c0 40.761631 30.299266 73.844462 67.701422 73.844462L448.009998 448.069989l0 0 127.980003 0 0 0L636.172598 448.069989zM511.520075 383.760037c-35.322481 0-63.990002-27.387721-63.990002-61.206436 0-22.588471 17.53326-39.865771 36.602281-50.488111l0-79.539572 54.807436 0 0 79.539572c19.06902 10.62234 36.602281 27.899641 36.602281 50.488111C575.510077 356.372317 546.842556 383.760037 511.520075 383.760037zM512 575.890017c-60.150601 0-63.830027-50.584096-63.990002-63.990002l0-63.798032-64.405937 0 0 57.622996c0 0 0.031995 134.379003 128.139978 134.379003 128.139978 0 128.139978-134.379003 128.139978-134.379003l0-57.622996L575.990002 448.101984l0 63.798032C575.862022 525.081956 572.150601 575.890017 512 575.890017zM512-128c-282.739822 0-511.920012 229.180191-511.920012 511.920012s229.180191 511.920012 511.920012 511.920012c91.121762 0 176.612404-23.964256 250.712826-65.717732l47.608561 65.877707L895.556069 671.93901l-223.453085 32.794876 52.759756 73.012592C661.512639 812.077113 589.107952 831.818028 512 831.818028c-247.385346 0-447.930011-200.544665-447.930011-447.930011s200.544665-447.930011 447.930011-447.930011 447.930011 200.544665 447.930011 447.930011c0 60.406561-12.126105 117.933573-33.786721 170.533354l59.158756 24.348196C1010.066177 518.682956 1023.920012 452.933229 1023.920012 383.888017 1023.920012 101.180191 794.739822-128 512-128z"  horiz-adv-x="1024" />

    
    <glyph glyph-name="shezhi" unicode="&#59023;" d="M545.784454-66.539206l-65.943898 0c-29.341259 0-54.624085 25.281803-54.624085 54.615898L425.216471 27.537426c0 9.623171-7.826246 20.911262-16.690124 23.680329l-1.566682 0.611937-55.725162 23.104207-0.880043 0.494257c-8.153704 4.41045-22.017456 2.376117-28.55229-4.187369l-28.17469-28.123524c-9.930163-9.977235-23.239284-15.494902-37.432541-15.494902-14.195304 0-27.507494 5.517667-37.487799 15.541975l-46.682205 46.630017c-20.60427 20.603247-20.6319 54.233182-0.069585 74.974575l28.15013 28.106128c6.637164 6.574742 8.676613 20.599154 4.253884 28.909423l-0.831948 1.768273-23.164582 56.128345-0.26913 0.682545c-2.803859 9.03477-14.279215 17.394159-23.611767 17.394159l-39.631626 0c-29.391401 0-52.861952 24.065092-52.861952 53.193503l0 65.943898c0 28.770254 22.998807 51.754734 52.919257 51.754734l39.575344 0c9.081843 0 20.803815 8.830109 23.666002 18.057261l0.567935 1.476631 23.163559 57.088206 0.505513 0.913812c4.40431 8.220219 2.319835 22.224164-4.2897 28.830629l-28.04166 28.087709c-9.964956 9.921977-15.486716 23.216771-15.502066 37.396725-0.01535 14.201443 5.492084 27.53717 15.507182 37.552268l46.6556 46.614667c9.94142 9.985422 23.248494 15.503089 37.432541 15.503089 0.001023 0 0 0 0.001023 0 14.184047 0 27.490098-5.51869 37.46938-15.540951l28.039613-28.05087c6.557346-6.525624 20.500916-8.596795 28.655643-4.231371l0.893346 0.478907 57.375755 23.64963c8.836249 2.731204 16.634866 14.037714 16.634866 23.719214l0 39.632649c0 28.967752 24.777313 52.095495 54.624085 52.095495L545.784454 831.923636c29.161157 0 52.370765-22.636556 52.370765-52.095495l0-39.632649c0-9.127891 8.709359-20.85498 17.767666-23.674189l1.51654-0.577145 56.639998-23.113417 0.923022-0.509606c8.202822-4.424776 22.184255-2.353604 28.788673 4.254907l28.163433 27.912723c9.895371 9.94142 23.179932 15.33936 37.352723 15.33936 0.019443 0 0.040932 0 0.060375 0 14.18814 0 27.508517-5.375427 37.516452-15.384385l46.709835-46.554292c10.004865-9.960863 15.524578-23.254633 15.524578-37.47552 0-14.18814-5.498224-27.506471-15.479553-37.532825l-28.16855-28.152177c-6.580882-6.610558-8.640798-20.771069-4.204765-29.107945l0.478907-0.896416 23.654746-57.956993c2.902096-9.255805 14.635325-18.114566 23.686469-18.114566l39.132252 0 0 0.573051c27.629267 0 52.188616-22.984481 52.188616-52.327786l0-65.998133c0-29.590945-22.985504-53.138244-51.746548-53.138244l-39.630602 0c-9.337669 0-20.84884-8.372691-23.686469-17.423835l-0.580215-1.51654-23.086811-56.240909-0.468674-0.860601c-4.419659-8.30413-2.393513-22.320355 4.169973-28.855188l28.135804-28.02017c10.031471-10.029424 15.539928-23.350824 15.537881-37.541011-0.004093-14.186094-5.514597-27.505447-15.518438-37.505195l-46.747697-46.682205c-9.920954-9.964956-23.219841-15.506159-37.406958-15.506159-0.019443 0-0.040932 0-0.060375 0-14.192234 0-27.514657 5.514597-37.518498 15.517415l-28.039613 28.095895c-6.490831 6.490831-20.807908 8.575306-28.887934 4.206812l-0.951675-0.514723-57.93755-23.680329c-9.087982-2.859118-17.823947-14.594393-17.823947-23.691585l0-39.460734C598.155219-41.76394 574.45954-66.539206 545.784454-66.539206zM421.86719 89.107713c25.192775-8.370645 44.282552-34.650171 44.282552-61.570287l0-39.460734c0-7.114025 6.569626-13.68365 13.691837-13.68365L545.784454-25.606958c6.496971 0 12.461823 6.043646 12.461823 13.68365L558.246277 27.537426c0 26.273387 19.516496 53.131081 44.901653 61.58052l53.859675 22.062482c23.62814 12.116969 56.342216 7.098675 75.118861-11.6749l28.009937-28.1532c2.432399-2.430352 5.678326-3.837398 9.179057-3.837398 0.00614 0 0.011256 0 0.01535 0 3.482311 0 6.726192 1.39886 9.135054 3.820002l46.780443 46.738487c2.436492 2.436492 3.783163 5.724375 3.78521 9.224082 0 3.495614-1.344624 6.774287-3.787256 9.216919l-28.106128 27.998681c-18.693758 18.609847-23.762193 51.349505-11.773138 75.036997l22.083971 53.603849c8.374738 25.167193 35.224246 44.51382 61.578474 44.51382l39.630602 0c7.745405 0 10.8143 7.086395 10.8143 13.229303l0 65.998133c0 6.862291-5.116531 12.07399-11.256368 12.302187l0-1.479701-39.132252 0c-26.236548 0-53.099359 20.149922-61.585637 45.735647l-22.083971 54.261834c-11.960403 23.654746-6.913457 56.502875 11.728112 75.228355l28.16855 28.192086c2.430352 2.441609 3.78828 5.764284 3.78828 9.295714 0 3.498684-1.334391 6.762007-3.759627 9.17394l-46.741557 46.577828c-2.462075 2.462075-5.736655 3.734044-9.234315 3.734044-0.004093 0-0.010233 0-0.013303 0-3.465938 0-6.700609-1.255597-9.105379-3.671623l-28.198226-28.037567c-18.703991-18.710131-51.417043-23.734564-75.000158-11.69025l-53.865815 22.072715c-25.403576 8.388041-44.934398 35.255968-44.934398 61.60508l0 39.632649c0 7.253194-5.517667 12.186554-12.461823 12.186554l-65.943898 0c-7.517207 0-13.691837-5.51869-13.691837-12.186554l0-39.632649c0-27.027563-19.107173-53.336766-44.325531-61.643965l-53.501518-21.99699c-23.834848-12.168134-55.857169-7.234775-74.878384 11.69639l-28.130687 28.115338c-2.441609 2.451842-5.690606 3.787256-9.152451 3.787256-3.462868 0.001023-6.704702-1.334391-9.117658-3.758604l-46.690392-46.64639c-2.438539-2.438539-3.784186-5.710049-3.781116-9.207709 0.004093-3.474125 1.339508-6.716982 3.762697-9.128915l28.068266-28.121478c18.698874-18.690688 23.782659-51.389414 11.808954-74.973552l-22.124903-54.813397c-8.413624-25.616424-35.281551-45.783743-61.603033-45.783743l-39.575344 0c-6.630001 0-13.010315-3.411703-13.010315-10.822486l0-65.943898c0-6.942109 5.753027-13.284561 12.95301-13.284561l39.631626 0c26.380834 0 53.195549-19.35072 61.524239-44.537356l22.182208-53.629431c12.027941-23.731494 6.918573-56.449663-11.863189-75.05644l-28.022217-27.949562c-5.021364-5.066389-5.048993-13.348006 0.010233-18.409279l46.713928-46.653553c2.452865-2.464121 5.695722-3.794419 9.168824-3.794419 3.472078 0 6.711865 1.336438 9.124821 3.759627l28.181853 28.122501c18.641569 18.730597 51.440579 23.752983 75.011414 11.642155L421.86719 89.107713zM513.734504 164.119127c-120.639614 0-218.786958 98.147344-218.786958 218.786958s98.147344 218.786958 218.786958 218.786958 218.786958-98.147344 218.786958-218.786958S634.375142 164.119127 513.734504 164.119127zM513.734504 561.675632c-98.573039 0-178.769546-80.195483-178.769546-178.769546s80.195483-178.769546 178.769546-178.769546 178.769546 80.195483 178.769546 178.769546S612.308567 561.675632 513.734504 561.675632z"  horiz-adv-x="1024" />

    
    <glyph glyph-name="zhongzhuan" unicode="&#59035;" d="M659.750065 550.494988l208.611202 0-136.581702-81.603553c-9.486048-5.66707-12.580526-17.950837-6.91448-27.436886 3.747347-6.27082 10.384511-9.749038 17.195637-9.749038 3.491521 0 7.028067 0.914836 10.242272 2.835581l198.816115 118.786407c6.045693 3.611248 9.745968 10.134825 9.745968 17.175171 0 7.040347-3.700275 13.563924-9.745968 17.175171l-198.816115 118.785384c-9.490142 5.669116-21.769816 2.572592-27.437909-6.913457-5.666046-9.486048-2.571568-21.769816 6.91448-27.436886l136.581702-81.602529L659.750065 590.510354c-114.183576 0-207.078289-92.895737-207.078289-207.080336 0-92.119047-74.944899-167.063947-167.063947-167.063947L84.531232 216.366072c-11.04966 0-20.007683-8.958022-20.007683-20.007683s8.958022-20.007683 20.007683-20.007683l201.076598 0c114.184599 0 207.079312 92.894713 207.079312 207.079312C492.687142 475.550089 567.631018 550.494988 659.750065 550.494988zM84.531232 550.494988l201.076598 0c39.496549 0 77.818343-14.034645 107.906615-39.520085 3.76065-3.183506 8.352225-4.739954 12.922311-4.739954 5.678326 0 11.319813 2.403746 15.276938 7.076162 7.141654 8.432043 6.094812 21.056572-2.336208 28.199249-37.306674 31.597649-84.813664 48.999994-133.769656 48.999994L84.531232 590.510354c-11.04966 0-20.007683-8.958022-20.007683-20.007683C64.523549 559.451988 73.481571 550.494988 84.531232 550.494988zM951.119109 213.532537 752.302995 332.322014c-9.490142 5.666046-21.769816 2.571568-27.437909-6.91448-5.666046-9.486048-2.571568-21.769816 6.91448-27.437909l136.581702-81.603553L659.750065 216.366072c-40.956807 0-80.354096 14.966876-110.932532 42.144866-8.256034 7.339152-20.903076 6.596232-28.246321-1.662873-7.340175-8.259104-6.596232-20.906146 1.663896-28.247344 37.910425-33.694403 86.74669-52.250014 137.514957-52.250014l208.610178 0-136.580678-81.601506c-9.486048-5.668093-12.580526-17.951861-6.91448-27.437909 3.747347-6.269797 10.384511-9.750061 17.195637-9.750061 3.491521 0 7.028067 0.914836 10.242272 2.835581l198.816115 118.785384c6.045693 3.612271 9.745968 10.134825 9.745968 17.176195C960.865077 203.399759 957.163779 209.922313 951.119109 213.532537z"  horiz-adv-x="1024" />

    
    <glyph glyph-name="add" unicode="&#59065;" d="M895.531061 410.211464 535.640488 410.211464 535.640488 770.102037c0 13.5716-11.001648 24.573248-24.573248 24.573248s-24.573248-11.001648-24.573248-24.573248l0-359.890572L126.604444 410.211464c-13.5716 0-24.573248-11.001648-24.573248-24.573248s11.001648-24.573248 24.573248-24.573248l359.889548 0 0-359.890572c0-13.5716 11.001648-24.573248 24.573248-24.573248s24.573248 11.001648 24.573248 24.573248L535.640488 361.065993l359.890572 0c13.5716 0 24.573248 11.001648 24.573248 24.573248S909.102661 410.211464 895.531061 410.211464z"  horiz-adv-x="1025" />

    
    <glyph glyph-name="minus" unicode="&#59066;" d="M895.531061 361.065993 126.604444 361.065993c-13.5716 0-24.573248 11.001648-24.573248 24.573248s11.001648 24.573248 24.573248 24.573248l768.926616 0c13.5716 0 24.573248-11.001648 24.573248-24.573248S909.102661 361.065993 895.531061 361.065993z"  horiz-adv-x="1025" />

    
    <glyph glyph-name="password" unicode="&#58914;" d="M775.830091 507.556654h-70.590665c0 113.381009-86.656855 200.039821-197.104821 200.039822-110.602543 0-197.106778-86.658812-197.106778-200.039822h-70.743285c0 136.090083 120.023893 270.632443 267.697443 270.632443S775.837918 643.644781 775.837918 507.556654h-0.007827z m89.595769-129.296536c0 38.925928-31.668651 70.588708-70.592622 70.588708H229.162849c-38.929841 0-70.592622-31.662781-70.592622-70.588708v-321.91472c0-38.927884 31.666694-70.590665 70.592622-70.590665h565.513856c38.927884 0 70.590665 31.666694 70.590665 70.590665V378.260118h0.15849z m-297.511174-232.810075c0-29.193467-23.638491-52.980665-52.980664-52.980665h-7.568387c-29.197381 0-52.982621 23.636534-52.982621 52.980665v143.656513c0 29.195424 23.636534 52.982621 52.982621 52.982621h7.568387c29.193467 0 52.980665-23.636534 52.980664-52.982621v-143.656513z"  horiz-adv-x="1024" />

    
    <glyph glyph-name="yonghu" unicode="&#58884;" d="M602.080-64.576h-178.592c-169.408 0-303.2 0-303.2 87.872v17.568c0 164.672 136.032 298.624 303.2 298.624h178.592c167.168 0 303.2-133.952 303.2-298.624v-17.568c-0.032-87.872-140.544-87.872-303.2-87.872zM423.456 286.816c-138.112 0-250.496-110.304-250.496-245.92v-17.568c0-35.168 144.768-35.168 250.496-35.168h178.592c87.52 0 250.496 0 250.496 35.168v17.568c0 135.616-112.384 245.92-250.496 245.92h-178.592zM503.84 357.12c-132.736 0-240.672 106.4-240.672 237.184s107.936 237.152 240.672 237.152 240.672-106.368 240.672-237.152-107.968-237.184-240.672-237.184zM315.872 594.304c0-101.696 84.32-184.48 187.968-184.48s187.968 82.752 187.968 184.48-84.32 184.448-187.968 184.448-187.968-82.752-187.968-184.448z"  horiz-adv-x="1024" />

    
    <glyph glyph-name="quanxian" unicode="&#58931;" d="M511.779622 896L110.521826 769.771814A35.821512 35.821512 0 0 1 85.333049 735.48551l2.046943-496.270092 0.454877-5.685954c0.739174-3.411573 17.228442-86.426505 99.276762-166.371023 63.114093-61.635745 217.885769-142.205717 283.899698-176.548881 10.348437-5.458516 18.195054-9.438684 22.573239-11.883645l7.50546-4.093887c5.117359-2.729258 11.315049-2.842977 16.489267-0.227438l10.973892 5.572235c38.664489 18.763649 234.943632 115.879749 307.894426 187.067897 82.16204 80.058237 98.594448 163.01631 99.276762 166.484742L938.226195 735.48551a35.821512 35.821512 0 0 1-25.188778 34.343164L511.779622 896z m334.845849-643.650027c-2.842977-11.428768-19.332245-67.605997-75.168316-122.077439-54.016566-52.708796-200.31617-128.10455-253.536703-154.544238a16.489267 16.489267 0 0 0-15.124638 0.113719H502.682095c-54.244004 28.202333-198.098648 103.086352-250.636866 154.373659-56.00665 54.585161-72.382198 110.70553-75.282035 122.077439l-1.705786 430.313022c0 6.425128 4.150747 12.167942 10.348437 14.101167l316.139059 99.5042a33.717709 33.717709 0 0 0 20.298857 0l316.139059-99.5042a14.783481 14.783481 0 0 0 10.462156-14.101167l-1.819505-430.369881-0.05686 0.056859zM517.863593 656.621324a148.630846 148.630846 0 0 0 104.621559-42.417219c27.633738-27.008283 43.213253-63.910126 43.099534-102.347178a142.376296 142.376296 0 0 0-43.724989-102.176599 147.834812 147.834812 0 0 0-67.890294-37.129281l-0.398017-60.725992 61.294587-0.170579a36.788124 36.788124 0 0 0 26.041671-10.462156c6.936864-6.823145 10.803313-16.034391 10.803313-25.700513a36.958703 36.958703 0 0 0-37.072422-36.10581l-61.237728 0.113719-0.227438-100.925689a36.958703 36.958703 0 0 0-37.072422-34.456883 36.958703 36.958703 0 0 0-37.072422 34.456883l0.909753 234.090739a143.854644 143.854644 0 0 0-105.81561 101.209986 142.205717 142.205717 0 0 0 38.664489 140.67051 149.142581 149.142581 0 0 0 105.019576 42.076062h0.05686z m84.152124-143.286049a78.40931 78.40931 0 0 1-23.994728 56.859543 83.810966 83.810966 0 0 1-116.334625 0.227439 79.091624 79.091624 0 0 1-0.284297-113.377929c15.408936-15.181498 36.219529-23.710429 57.996734-23.539851 44.179865-0.170579 82.446337 37.129282 82.560056 80.001377v-0.113719z"  horiz-adv-x="1024" />

    
    <glyph glyph-name="jiaose1" unicode="&#58956;" d="M972.888 56.736c-0.003 139.786-80.267 259.269-193.774 307.996 54.974 39.618 91.202 107.115 91.202 183.765 0 104.65-67.5 192.23-158.103 215.007-0.84 0.22-1.629 0.103-2.396-0.218-1.032 0.104-2.03 0.343-3.078 0.343-19.357 0-35.047-16.93-35.047-37.805 0-18.856 12.837-34.352 29.577-37.204 2.98-1.31 6.887-2.308 7.04-2.367 52.47-19.206 90.23-72.708 90.23-135.79 0-70.341-46.976-128.792-108.93-141.026-0.088-0.008-0.161-0.18-0.248-0.227-20.61-1.405-36.983-19.697-36.983-42.276 0-22.919 16.85-41.482 37.902-42.387 0.148-0.076 0.274-0.324 0.424-0.334 124.602-13.688 212.926-128.16 212.926-267.485 0-20.62 15.508-37.344 34.634-37.344 18.658 0 33.76 15.956 34.488 35.888 0.024 0.194 0.139 0.35 0.139 0.542 0 0.07-0.022 0.14-0.022 0.223 0.01 0.233 0.022 0.458 0.022 0.686v0.013h-0.003M557.914 358.534c65.646 47.436 108.888 128.095 108.888 219.718 0 145.993-109.742 264.355-245.123 264.355-135.376 0-245.125-118.362-245.125-264.355 0-91.63 43.25-172.282 108.887-219.718C149.74 300.13 53.793 157.204 53.793-9.982c0-9.416 0.496-18.681 1.163-27.901h0.062c0-20.35 15.293-36.831 34.165-36.831 18.861 0 34.158 16.48 34.158 36.83 0 1.148-0.216 2.228-0.315 3.352-0.657 8.111-1.223 16.236-1.223 24.55 0 178.61 134.253 323.388 299.873 323.388s299.877-144.779 299.877-323.388c0-8.618-0.565-17.096-1.27-25.5-0.002-0.439-0.118-0.837-0.118-1.278 0-0.138 0.04-0.264 0.04-0.393-0.022-0.24-0.014-0.494-0.04-0.73h0.113c0.565-19.804 15.549-35.716 34.048-35.716 18.508 0 33.49 15.902 34.057 35.717h0.074c0.641 9.224 1.1 18.495 1.1 27.887 0.006 167.199-95.935 310.125-231.643 368.529M421.679 388.36c-97.245 0-176.076 85.019-176.076 189.892 0 104.868 78.831 189.886 176.076 189.886 97.246 0 176.075-85.017 176.075-189.886 0-104.873-78.829-189.892-176.075-189.892m0 0z"  horiz-adv-x="1024" />

    
    <glyph glyph-name="zidian" unicode="&#59158;" d="M349.296361 548.800393h328.588737c14.139022 0 25.600051 11.462053 25.600051 25.600051 0 14.137998-11.461029 25.600051-25.600051 25.600052H349.296361c-14.137998 0-25.600051-11.462053-25.600051-25.600052 0-14.139022 11.462053-25.600051 25.600051-25.600051zM349.296361 385.600451h328.588737c14.139022 0 25.600051 11.461029 25.600051 25.600051 0 14.137998-11.461029 25.600051-25.600051 25.600051H349.296361c-14.137998 0-25.600051-11.462053-25.600051-25.600051 0-14.139022 11.462053-25.600051 25.600051-25.600051zM894.998951 140.800026v51.200102h-0.001024V764.799866c0 44.277436-36.310997 80.000032-80.896448 80.000032H205.846228c-44.584428 0-80.896448-35.722596-80.896448-80.000032v-707.199751c0-74.321706 61.067844-134.400013 136.191822-134.400013h633.587196v0.00307c0.090051 0 0.179079-0.00307 0.269129-0.00307v51.200103c-47.032176 0-84.99172 37.344536-84.991719 83.19991 0.001023 45.855374 37.960567 83.19991 84.992743 83.199911zM205.846228 793.599795h608.256275c16.493649 0 29.696346-12.988826 29.696345-28.799929v-572.799738H261.141602c-32.129768 0-61.681828-10.996448-84.99172-29.389354V764.799866c0 15.812127 13.202697 28.79993 29.696346 28.799929z m-29.696346-735.99968c0 45.855374 37.959543 83.19991 84.99172 83.199911h526.891152c-18.296715-22.871917-29.225625-51.760874-29.225625-83.199911s10.929934-60.327994 29.225625-83.19991H261.141602c-47.032176 0-84.99172 37.344536-84.99172 83.19991z"  horiz-adv-x="1024" />

    
    </font>
</defs>
</svg>
